<?xml version="1.0" standalone="no"?>
<!DOCTYPE svg PUBLIC "-//W3C//DTD SVG 1.1//EN" "http://www.w3.org/Graphics/SVG/1.1/DTD/svg11.dtd" >
<svg xmlns="http://www.w3.org/2000/svg" xmlns:xlink="http://www.w3.org/1999/xlink" version="1.1">
  <metadata>
    Created by FontForge 20161013 at Tue Jan 21 18:19:02 2014
    By ,,,
    Rights: By ministerial order of 16 June 2008 (Government Gazette 2008, no. 115), the State of the Netherlands
    (Ministry of General Affairs) entered a copyright reservation, as referred to in section 15b of the Copyright Act
    1912, concerning the use and application of central government's general purpose Rijkslogo and visual identity,
    including the fonts Rijksoverheid Serif and Rijksoverheid Sans.
    This reservation does not apply to parties to whom central government has supplied the Rijkslogo and the visual
    identity for use in carrying out activities or services commissioned by central government. Any use in any form or
    by any means, electronic, mechanical, photocopying, recording or otherwise is prohibited unless prior written
    authorisation has been obtained from central government. To obtain authorisation, you should apply to the Government
    Information Service.
  </metadata>
  <defs>
    <font id="RijksoverheidSansWebText-Regular" horiz-adv-x="531">
      <font-face
        font-family="RijksoverheidSansWebText Regular"
        font-weight="400"
        font-stretch="normal"
        units-per-em="1000"
        panose-1="2 11 5 3 4 2 2 6 2 3"
        ascent="809"
        descent="-191"
        x-height="489"
        cap-height="656"
        bbox="-185 -242 1161 899"
        underline-thickness="50"
        underline-position="-150"
        unicode-range="U+0020-1F6B2"
      />
      <missing-glyph horiz-adv-x="629"
                     d="M0 0v635h629v-635h-629zM50 50h529v535h-529v-535zM493 184l-37 -37l-140 141l-141 -141l-37 38l141 139l-142 141l38 37l141 -142l140 142l37 -37l-141 -141z"/>
      <glyph glyph-name="f_i" unicode="fi" horiz-adv-x="547"
             d="M467 492v-492h-75v427h-221v-427h-76v427h-60v62h60v56q0 39 12 68t36 48.5t59.5 29.5t83.5 10q26 0 48.5 -0.5t44.5 -1.5t45 -2.5t49 -3.5l-6 -65q-25 2 -47 3.5t-44 2t-44.5 1t-48.5 0.5q-31 0 -52.5 -5t-34.5 -15t-19 -27t-6 -41v-58h221z"/>
      <glyph glyph-name="f_l" unicode="fl" horiz-adv-x="547"
             d="M467 699v-699h-75v628q-13 2 -27.5 3l-29 2t-29 1.5t-28.5 0.5q-30 0 -50.5 -5.5t-33 -16.5t-18 -27t-5.5 -39v-58h125v-62h-125v-427h-76v427h-60v62h60v56q0 36 11 65t33 49t57 31t81 11q13 0 28 -0.5t31 -1.5t31.5 -2.5t27.5 -3.5z"/>
      <glyph glyph-name=".notdef" horiz-adv-x="629"
             d="M0 0v635h629v-635h-629zM50 50h529v535h-529v-535zM493 184l-37 -37l-140 141l-141 -141l-37 38l141 139l-142 141l38 37l141 -142l140 142l37 -37l-141 -141z"/>
      <glyph glyph-name=".null" horiz-adv-x="0"
      />
      <glyph glyph-name="nonmarkingreturn" horiz-adv-x="333"
      />
      <glyph glyph-name="space" unicode=" " horiz-adv-x="206"
      />
      <glyph glyph-name="exclam" unicode="!" horiz-adv-x="287"
             d="M105 653l84 9l-7 -299v-182l-77 -4v476zM85 55q0 14 3.5 25t11 19t18.5 12.5t25 4.5t24.5 -4t18 -11.5t11.5 -19t4 -26.5q0 -13 -4 -24t-11.5 -19t-18 -12t-24.5 -4t-24.5 4t-18 11.5t-11.5 18.5t-4 25z"/>
      <glyph glyph-name="quotedbl" unicode="&#x22;" horiz-adv-x="352"
             d="M227 483l-12 207h79l-12 -207h-55zM70 483l-12 207h79l-12 -207h-55z"/>
      <glyph glyph-name="numbersign" unicode="#" horiz-adv-x="593"
             d="M236 425l-24 -193h147l24 193h-147zM54 425l7 59h121l22 172h60l-21 -172h146l22 172h62l-22 -172h120l-7 -59h-120l-24 -193h119l-7 -59h-120l-20 -173h-62l21 173h-147l-21 -173h-60l21 173h-121l6 59h122l24 193h-121z"/>
      <glyph glyph-name="dollar" unicode="$"
             d="M221 -105v99h-1q-21 0 -40 1t-37.5 2.5t-36.5 4t-37 6.5v73q23 -5 42.5 -8.5t38.5 -5.5t37.5 -3t38.5 -1q35 0 64 8.5t49.5 23.5t31 36.5t10.5 47.5q0 21 -5.5 37t-18 29.5t-32 24.5t-47.5 21l-81 28q-27 9 -49 23.5t-38 34t-24.5 44t-8.5 53.5q0 35 11.5 65t33.5 54
t53.5 40t70.5 23v105h59v-99q19 0 36.5 -0.5t33.5 -2t31.5 -4t30.5 -5.5l-8 -70q-17 3 -32 5.5t-30.5 4t-32 2.5t-34.5 1q-34 0 -61 -8t-45.5 -22t-28 -33t-9.5 -42q0 -20 5 -35t16 -27t27.5 -21.5t40.5 -17.5l84 -28q34 -11 58.5 -26.5t40.5 -36t24 -46t8 -57.5
q0 -38 -12.5 -70.5t-36 -58t-57 -42.5t-74.5 -24v-103h-59z"/>
      <glyph glyph-name="percent" unicode="%" horiz-adv-x="828"
             d="M519 674l55 -22l-266 -675l-55 22zM197 663q33 0 61 -11t48.5 -33.5t32 -58t11.5 -83.5q0 -46 -13 -82.5t-35.5 -61t-52 -36.5t-61.5 -12q-34 0 -61.5 10t-48 32t-32 57t-11.5 84q0 48 12.5 85t35 61.5t52 36.5t62.5 12zM192 607q-20 0 -36 -8t-28 -24.5t-18.5 -41.5
t-6.5 -58q0 -36 6.5 -61.5t18.5 -41.5t28 -23t37 -7q19 0 35.5 8t28.5 24.5t18.5 41.5t6.5 57q0 36 -6 61.5t-17.5 41.5t-28 23.5t-38.5 7.5zM640 371q33 0 61 -11t48.5 -33.5t32 -58t11.5 -83.5q0 -47 -13 -83t-35.5 -60.5t-51.5 -36.5t-62 -12q-34 0 -61.5 10t-48 32
t-32 57t-11.5 84q0 48 12.5 85t35 61.5t52 36.5t62.5 12zM635 315q-20 0 -36 -8t-27.5 -24.5t-18 -41.5t-6.5 -58q0 -36 6.5 -61.5t18 -41.5t27.5 -23t37 -7q20 0 36.5 8t28.5 24.5t18.5 41.5t6.5 57q0 35 -6 61t-18 42t-28.5 23.5t-38.5 7.5z"/>
      <glyph glyph-name="ampersand" unicode="&#x26;" horiz-adv-x="712"
             d="M310 -9q-59 0 -104 12.5t-74.5 36t-44.5 57.5t-15 77q0 28 9.5 54t28 48.5t45 39t59.5 24.5v3q-28 9 -49.5 22.5t-35.5 31.5t-21.5 41t-7.5 50q0 36 14 68.5t40.5 57t63 38t79.5 13.5q18 0 34 -1t30.5 -3t28 -5t27.5 -7l-6 -68q-14 3 -27.5 6t-27 4.5t-27.5 2.5t-28 1
q-27 0 -49 -7.5t-37.5 -21.5t-24 -33.5t-8.5 -41.5q0 -30 10.5 -52t31.5 -36t53 -21t76 -7h22v-68h-40q-42 0 -76 -10t-57 -27.5t-35 -40.5t-12 -48q0 -28 10.5 -50.5t30.5 -38.5t50 -24t69 -8q45 0 85.5 17.5t71.5 53t48.5 88.5t17.5 122h-73v66h210v-66h-62
q0 -82 -23.5 -147.5t-65 -111t-96.5 -68.5t-118 -23z"/>
      <glyph glyph-name="quotesingle" unicode="'" horiz-adv-x="195"
             d="M70 483l-12 207h79l-12 -207h-55z"/>
      <glyph glyph-name="parenleft" unicode="(" horiz-adv-x="283"
             d="M49 238q0 58 10 113.5t29 108.5t47 102t64 94h66q-37 -49 -64 -97.5t-46 -99t-28.5 -105t-9.5 -113.5q0 -50 10 -103.5t29.5 -107.5t47 -105.5t61.5 -98.5h-66q-36 45 -63.5 94t-47 101.5t-29.5 107t-10 109.5z"/>
      <glyph glyph-name="parenright" unicode=")" horiz-adv-x="283"
             d="M234 244q0 -58 -10 -113.5t-29 -108.5t-47 -102t-64 -94h-66q36 49 63.5 97.5t46 99.5t28.5 105t10 113q0 51 -10.5 104.5t-30 107t-46.5 105t-61 98.5h66q36 -45 63.5 -94t47 -101.5t29.5 -107t10 -109.5z"/>
      <glyph glyph-name="asterisk" unicode="*" horiz-adv-x="529"
             d="M321 540l124 49l21 -64l-128 -31l-37 -12l23 -28l86 -102l-54 -39l-70 111l-22 30l-21 -30l-69 -110l-55 37l85 102l22 29l-35 11l-128 32l19 63l124 -49l35 -13v37l-10 133h67l-10 -133v-37z"/>
      <glyph glyph-name="plus" unicode="+"
             d="M68 263v67h164v164h67v-164h163v-67h-163v-164h-67v164h-164z"/>
      <glyph glyph-name="comma" unicode="," horiz-adv-x="246"
             d="M64 55q0 13 4.5 24.5t12 20t18.5 13.5t24 5t24 -4.5t19 -13t12 -20.5t4 -26q0 -16 -12 -43t-29.5 -55t-33 -47t-21.5 -19h-41l48 117q-6 3 -11.5 8t-9.5 11t-6 13.5t-2 15.5z"/>
      <glyph glyph-name="hyphen" unicode="-" horiz-adv-x="396"
             d="M68 251v71h259v-71h-259z"/>
      <glyph glyph-name="period" unicode="." horiz-adv-x="246"
             d="M63 55q0 14 4 25.5t11.5 20t19 13t25.5 4.5t25 -4t19 -12t12 -20t4 -27q0 -13 -4 -24.5t-12 -19.5t-19 -12.5t-25 -4.5t-25.5 4t-19 12t-11.5 19t-4 26z"/>
      <glyph glyph-name="slash" unicode="/" horiz-adv-x="321"
             d="M283 670l59 -22l-304 -836l-59 22z"/>
      <glyph glyph-name="zero" unicode="0"
             d="M272 665q46 0 84.5 -19.5t67 -60.5t44 -103.5t15.5 -146.5q0 -83 -17.5 -148t-49 -108.5t-71.5 -65.5t-85 -22q-47 0 -85.5 19t-66.5 58.5t-43.5 102.5t-15.5 148q0 86 17.5 151.5t48.5 108.5t71 64.5t86 21.5zM265 596q-29 0 -53.5 -17t-42 -51t-27 -84.5t-9.5 -115.5
q0 -70 9.5 -121t27.5 -83.5t42 -48t54 -15.5q29 0 53.5 17.5t42.5 52t27.5 85.5t9.5 116q0 69 -9 119.5t-26 82.5t-42 47.5t-57 15.5z"/>
      <glyph glyph-name="one" unicode="1"
             d="M110 567v63q20 6 41 11t42 8.5t41.5 5t38.5 1.5h55v-656h-79v582q-15 0 -32 -1t-35 -3t-36 -5z"/>
      <glyph glyph-name="two" unicode="2"
             d="M97 571v68q20 6 38.5 10t36 6.5t34.5 4t35 1.5q45 0 82 -11.5t63.5 -33.5t41 -53.5t14.5 -69.5q0 -32 -7.5 -59t-24 -51.5t-42 -50t-63.5 -53.5l-56 -43q-26 -19 -45 -38t-32.5 -39.5t-21 -42.5t-8.5 -46h316v-70h-366l-21 62q2 33 11 63t24 56.5t36.5 50.5t49.5 46
l64 49q28 22 47 40t31.5 36t18.5 37t6 42q0 26 -9 46t-25.5 33.5t-40 20.5t-52.5 7q-18 0 -34 -1t-32 -3t-32.5 -5.5t-36.5 -8.5z"/>
      <glyph glyph-name="three" unicode="3"
             d="M87 587v69h332l21 -54q-11 -39 -25.5 -70.5t-33 -56.5t-41 -46t-51.5 -39v-1q39 -6 69.5 -20.5t51 -36t31.5 -51.5t11 -67q0 -47 -21.5 -87.5t-61 -71t-93 -47.5t-116.5 -17h-76v64h74q48 0 87 11.5t67 32t42.5 48.5t14.5 60q0 29 -9 51.5t-27.5 39.5t-47.5 28t-69 16
q-10 -4 -21 -8t-22.5 -7.5t-23 -6.5t-23.5 -6l-14 59q52 13 93.5 33t72 47t51 60.5t31.5 73.5h-273z"/>
      <glyph glyph-name="four" unicode="4"
             d="M413 659v-453h73v-65h-73v-141h-78v141h-261l-22 47q0 75 22 151.5t62.5 142.5t95.5 112.5t119 64.5h62zM126 206h210v377h-2q-42 -21 -80 -59t-67 -89t-45 -110t-16 -119z"/>
      <glyph glyph-name="five" unicode="5"
             d="M422 656v-69h-258v-162q10 1 19 2t17 1.5t16 0.5h20q47 0 85.5 -13t66 -38t42.5 -60.5t15 -79.5q0 -56 -22 -102t-62 -78.5t-94 -49.5t-116 -17h-68v65h70q45 -1 84 11.5t67 36t43.5 55.5t15.5 68q0 31 -10.5 56t-31 42t-49.5 26t-65 9q-15 0 -29 -0.5t-28 -1.5l-28 -2
t-28 -3v303h328z"/>
      <glyph glyph-name="six" unicode="6"
             d="M385 656h68v-63h-64q-44 0 -80 -11t-65.5 -34t-50.5 -58.5t-33 -83.5l1 -2q13 7 25 12t25 8t28 4.5t33 1.5q44 0 80 -13.5t62 -40t40 -65t14 -86.5q0 -52 -14.5 -95.5t-42 -74.5t-64 -47.5t-80.5 -16.5q-47 0 -84.5 17.5t-64.5 52t-41 85.5t-14 117q0 103 24 178.5
t67.5 122.5t101.5 69.5t129 22.5zM151 348q-1 -12 -2 -21.5t-1.5 -20t-1 -22.5t-0.5 -26q0 -52 9 -90.5t25.5 -63.5t39 -37t50.5 -12q27 0 48.5 10t36.5 29.5t23 49t8 68.5q0 37 -9 65.5t-26 47t-40 27.5t-52 9q-16 0 -31 -1t-28.5 -3t-25.5 -4t-23 -5z"/>
      <glyph glyph-name="seven" unicode="7"
             d="M68 656h391l15 -67q-61 -63 -107 -134t-75.5 -146t-44 -152.5t-14.5 -156.5h-77q0 77 12.5 152.5t40 149.5t71.5 145.5t106 137.5v2h-318v69z"/>
      <glyph glyph-name="eight" unicode="8"
             d="M271 665q40 0 73.5 -11.5t58 -32.5t37.5 -48.5t13 -58.5q0 -28 -7 -53t-21.5 -47.5t-37.5 -43t-55 -39.5l41 -22q29 -17 48.5 -34t31 -34.5t16.5 -36t5 -38.5q0 -37 -16.5 -69.5t-46 -56t-68.5 -36.5t-82 -13q-46 0 -83.5 11.5t-64 33t-40.5 51.5t-14 66q0 27 7 51.5
t21.5 47t38.5 43t58 39.5l-32 23q-17 12 -30 26t-22 31t-13.5 37t-4.5 43q0 33 14.5 63.5t41 55t61 38.5t72.5 14zM266 602q-23 0 -42 -8t-33.5 -22t-22 -32t-7.5 -38q0 -19 3.5 -34t11 -27.5t19 -23t28.5 -21.5l65 -41q23 17 39.5 33.5t27.5 34.5t16.5 38.5t5.5 45.5
q0 21 -7.5 38.5t-22 30t-35.5 19.5t-46 7zM301 264l-74 42q-24 -15 -41.5 -32t-28.5 -35t-16 -37.5t-5 -41.5q0 -24 9.5 -44t26.5 -34t41 -21.5t53 -7.5q26 0 49 7.5t40.5 21t27 31t9.5 36.5q0 16 -4 29.5t-14 27t-27.5 28t-45.5 30.5z"/>
      <glyph glyph-name="nine" unicode="9"
             d="M145 0h-67v63h63q44 0 80.5 11t65.5 34t50 58.5t34 83.5l-2 2q-13 -7 -25 -12t-24.5 -8t-27 -4.5t-32.5 -1.5q-45 0 -81.5 13.5t-62.5 40t-40 65t-14 86.5q0 52 15 95.5t42 74.5t64 47.5t81 16.5q46 0 83.5 -17.5t64.5 -52t41 -85.5t14 -117q0 -104 -24 -179t-67 -122.5
t-101.5 -69.5t-129.5 -22zM381 308q2 22 2 27t0.5 15.5t1 22t0.5 25.5q0 52 -9 90.5t-25.5 63.5t-39.5 37t-51 12q-27 0 -48.5 -10t-36.5 -29.5t-23 -49.5t-8 -68q0 -37 9.5 -65.5t26.5 -47t40 -27.5t51 -9q16 0 31.5 1t29 3t25.5 4t24 5z"/>
      <glyph glyph-name="colon" unicode=":" horiz-adv-x="246"
             d="M63 409q0 14 4 25.5t11.5 20t19 13t25.5 4.5t25 -4t19 -12t12 -20t4 -27q0 -13 -4 -24.5t-12 -19.5t-19 -12.5t-25 -4.5t-25.5 4t-19 12t-11.5 19t-4 26zM63 55q0 14 4 25.5t11.5 20t19 13t25.5 4.5t25 -4t19 -12t12 -20t4 -27q0 -13 -4 -24.5t-12 -19.5t-19 -12.5
t-25 -4.5t-25.5 4t-19 12t-11.5 19t-4 26z"/>
      <glyph glyph-name="semicolon" unicode=";" horiz-adv-x="246"
             d="M63 409q0 14 4 25.5t11.5 20t19 13t25.5 4.5t25 -4t19 -12t12 -20t4 -27q0 -13 -4 -24.5t-12 -19.5t-19 -12.5t-25 -4.5t-25.5 4t-19 12t-11.5 19t-4 26zM64 55q0 13 4.5 24.5t12 20t18.5 13.5t24 5t24 -4.5t19 -13t12 -20.5t4 -26q0 -16 -12 -43t-29.5 -55t-33 -47
t-21.5 -19h-41l48 117q-6 3 -11.5 8t-9.5 11t-6 13.5t-2 15.5z"/>
      <glyph glyph-name="less" unicode="&#x3c;"
             d="M171 298v-2l270 -156l-34 -58l-328 191v47l328 191l34 -58z"/>
      <glyph glyph-name="equal" unicode="="
             d="M68 353v67h394v-67h-394zM68 173v67h394v-67h-394z"/>
      <glyph glyph-name="greater" unicode="&#x3e;"
             d="M360 295v2l-270 156l34 58l328 -191v-47l-328 -191l-34 58z"/>
      <glyph glyph-name="question" unicode="?" horiz-adv-x="420"
             d="M362 521q0 -24 -5.5 -45t-16.5 -39.5t-28.5 -35.5t-41.5 -34l-56 -39q-11 -8 -19.5 -17t-14 -18t-8.5 -18.5t-3 -19.5t1.5 -20t5 -19t8 -17.5t9.5 -16.5l-64 -5q-7 7 -13 16.5t-10.5 20.5t-7 22t-2.5 21q0 17 4 33t12.5 30t22 28t32.5 28l56 40q16 12 27 23t17.5 22.5
t9.5 24t3 27.5q0 18 -7 32.5t-20 25t-32.5 16t-44.5 5.5q-16 0 -32 -2t-32.5 -5.5t-33 -8.5t-33.5 -12v66q18 8 35 14t34.5 10t36.5 6t40 2q40 0 72 -10t54 -28.5t33.5 -44.5t11.5 -58zM101 55q0 14 3.5 25t11 19t18.5 12.5t25 4.5t24.5 -4t18 -11.5t11.5 -19t4 -26.5
q0 -13 -4 -24t-11.5 -19t-18 -12t-24.5 -4t-24.5 4t-18 11.5t-11.5 18.5t-4 25z"/>
      <glyph glyph-name="at" unicode="@" horiz-adv-x="955"
             d="M546 -111v-49q-18 -9 -35.5 -14.5t-36 -9.5t-40 -6t-47.5 -2q-64 0 -122.5 21t-104.5 65.5t-72.5 114.5t-26.5 164q0 107 36.5 197.5t100.5 155t146.5 99t171.5 34.5q82 0 151.5 -26t120.5 -74t78.5 -114.5t27.5 -146.5q0 -68 -20 -125.5t-53.5 -98t-74.5 -62t-81 -21.5
q-23 0 -40.5 5.5t-31 16.5t-22.5 28t-13 40h-3q-17 -21 -34.5 -37.5t-37 -27.5t-39.5 -16.5t-42 -5.5q-29 0 -53.5 11t-43 35.5t-29 64t-10.5 95.5q0 67 19.5 122.5t52.5 94t73 58.5t80 20q9 0 18.5 -0.5t18.5 -2t18 -3.5t17 -4l66 13v-368q0 -20 3 -34.5t9.5 -24t15 -13.5
t19.5 -4q29 0 56.5 16.5t49.5 47.5t35 76t13 99q0 68 -22.5 125t-65 98t-102 63t-132.5 22t-142 -30t-123.5 -86.5t-86 -134.5t-31.5 -170q0 -80 21.5 -139.5t59.5 -98.5t87.5 -57.5t105.5 -18.5q20 0 40 1.5t39 4.5t36 7.5t32 9.5zM553 136v286q-7 1 -15.5 2.5t-17.5 2
t-17.5 1t-16.5 0.5q-27 0 -52.5 -14.5t-45.5 -42.5t-31.5 -69t-11.5 -93q0 -42 6 -70.5t16.5 -45t24.5 -23.5t30 -7q14 0 29 4t31 13t33.5 23t37.5 33z"/>
      <glyph glyph-name="A" unicode="A" horiz-adv-x="567"
             d="M389 245l-103 350h-9l-105 -350h217zM348 656l201 -656h-88l-53 177h-256l-52 -177h-83l207 656h124z"/>
      <glyph glyph-name="B" unicode="B" horiz-adv-x="576"
             d="M282 0h-184v656h169q55 0 96.5 -11.5t69.5 -33t41.5 -51.5t13.5 -67q0 -29 -6 -52.5t-17.5 -41t-28.5 -30.5t-39 -22v-2q29 -7 51 -20.5t37 -32.5t22.5 -43.5t7.5 -53.5q0 -45 -15 -81.5t-44.5 -61.5t-73 -38.5t-100.5 -13.5zM261 589h-84v-219h84q38 0 65.5 7t45 21
t26 36t8.5 51q0 25 -8.5 44.5t-26 32.5t-45 20t-65.5 7zM259 304h-82v-237h103q37 0 65.5 8t48 24t29.5 38.5t10 51.5q0 28 -9 49.5t-29.5 36t-54 22t-81.5 7.5z"/>
      <glyph glyph-name="C" unicode="C" horiz-adv-x="526"
             d="M499 77v-68q-21 -5 -37 -7.5t-32 -4.5t-34.5 -3t-41.5 -1q-64 0 -119 20.5t-96 61t-63.5 100.5t-22.5 138q0 87 26 153.5t71 110t101.5 64.5t117.5 21q20 0 36 -1t31 -2.5t29.5 -3.5t32.5 -6l-9 -70q-22 4 -36.5 6.5t-27.5 4t-27 2t-33 0.5q-45 0 -86 -16.5t-73.5 -50
t-51 -84t-18.5 -116.5q0 -65 17.5 -114.5t48.5 -82.5t73 -49t90 -16q20 0 35.5 0.5t31 2t32 4.5t35.5 7z"/>
      <glyph glyph-name="D" unicode="D" horiz-adv-x="654"
             d="M277 0h-179v656h174q78 0 139 -19.5t103.5 -58.5t64.5 -97.5t22 -134.5q0 -85 -23 -150t-65.5 -108.5t-102 -65.5t-133.5 -22zM177 588v-520h101q55 0 99 16.5t75.5 50t48.5 85t17 121.5q0 62 -17 108.5t-49.5 77.5t-79.5 46t-106 15h-89z"/>
      <glyph glyph-name="E" unicode="E" horiz-adv-x="489"
             d="M98 0v656h324v-69h-245v-215h221v-69h-221v-234h248v-69h-327z"/>
      <glyph glyph-name="F" unicode="F" horiz-adv-x="467"
             d="M98 0v656h324v-69h-245v-217h221v-69h-221v-301h-79z"/>
      <glyph glyph-name="G" unicode="G" horiz-adv-x="627"
             d="M350 241v69h199v-299q-23 -5 -45.5 -8t-45 -5.5t-46.5 -3.5t-50 -1q-65 0 -121 20.5t-98.5 60.5t-66 100.5t-23.5 138.5q0 90 28.5 157t77.5 109.5t109.5 62.5t125.5 20q21 0 39.5 -1t35 -2.5t32.5 -4t35 -5.5l-9 -70q-31 5 -42.5 6.5t-26.5 3t-31 2.5t-36 1
q-50 0 -95.5 -15.5t-81.5 -48.5t-57 -84t-21 -119q0 -65 18.5 -115t51.5 -83t75 -49t90 -16h27t23.5 1t23.5 2t26 3v173h-121z"/>
      <glyph glyph-name="H" unicode="H" horiz-adv-x="654"
             d="M477 0v301h-300v-301h-79v656h79v-285h300v285h79v-656h-79z"/>
      <glyph glyph-name="I" unicode="I" horiz-adv-x="274"
             d="M177 656v-656h-79v656h79z"/>
      <glyph glyph-name="J" unicode="J" horiz-adv-x="325"
             d="M230 656v-495q0 -40 -12 -71.5t-33.5 -52.5t-51.5 -32t-65 -11h-13t-14 0.5t-13 1.5t-11 2v70q5 -1 11 -2t12.5 -1.5t12.5 -0.5h12q20 0 36 6t27 18.5t17 31.5t6 43v493h79z"/>
      <glyph glyph-name="K" unicode="K" horiz-adv-x="591"
             d="M98 656h79v-286h56l234 286h93l-256 -310l263 -346h-102l-229 300h-59v-300h-79v656z"/>
      <glyph glyph-name="L" unicode="L" horiz-adv-x="450"
             d="M98 0v656h79v-587h247v-69h-326z"/>
      <glyph glyph-name="M" unicode="M" horiz-adv-x="827"
             d="M193 577h-5l-24 -577h-75l31 656h120l175 -434h4l171 434h117l32 -656h-80l-25 577h-5l-178 -442h-77z"/>
      <glyph glyph-name="N" unicode="N" horiz-adv-x="654"
             d="M434 0l-258 574h-4v-574h-74v656h122l258 -574h5v574h74v-656h-123z"/>
      <glyph glyph-name="O" unicode="O" horiz-adv-x="667"
             d="M53 323q0 80 22 144t61.5 108.5t92 67t113.5 22.5q58 0 107.5 -21t86.5 -63t57 -104.5t20 -143.5q0 -80 -21.5 -144t-61 -108.5t-91.5 -67t-113 -22.5q-59 0 -108.5 21t-86.5 63t-57.5 104.5t-20.5 143.5zM136 333q0 -73 15 -125t42 -84.5t62.5 -47t77.5 -14.5
q38 0 73 14.5t63 45.5t45 81.5t17 119.5q0 73 -15 125.5t-42 84.5t-62.5 46.5t-77.5 14.5q-38 0 -73 -14.5t-63 -45.5t-45 -81.5t-17 -119.5z"/>
      <glyph glyph-name="P" unicode="P" horiz-adv-x="537"
             d="M177 589v-269q11 -1 19 -2t15.5 -1.5t15.5 -0.5h19q41 0 72 9.5t52 27.5t31.5 44.5t10.5 60.5q0 33 -9.5 57.5t-28 41t-46.5 24.5t-65 8h-86zM177 252v-252h-79v656h174q53 0 94.5 -13.5t70 -38t43 -59.5t14.5 -78q0 -53 -16.5 -94t-48 -69t-76.5 -42t-103 -14h-18.5
t-17 0.5t-17.5 1.5t-20 2z"/>
      <glyph glyph-name="Q" unicode="Q" horiz-adv-x="667"
             d="M53 323q0 80 22 144t61.5 108.5t92 67t113.5 22.5q58 0 107.5 -21t86.5 -63t57 -104.5t20 -143.5q0 -66 -14.5 -121t-42 -97t-64.5 -70t-82 -41l141 -177h-95l-126 164h-4q-59 0 -108.5 21t-86.5 63t-57.5 104.5t-20.5 143.5zM136 333q0 -73 15 -125t42 -84.5t62.5 -47
t77.5 -14.5q38 0 73 14.5t63 45.5t45 81.5t17 119.5q0 73 -15 125.5t-42 84.5t-62.5 46.5t-77.5 14.5q-38 0 -73 -14.5t-63 -45.5t-45 -81.5t-17 -119.5z"/>
      <glyph glyph-name="R" unicode="R" horiz-adv-x="565"
             d="M177 589v-248h92q33 0 59.5 7.5t45.5 23.5t29 40t10 56q0 30 -9 52.5t-27.5 37.5t-46 23t-65.5 8h-88zM177 274v-274h-79v656h172q54 0 96 -12.5t71 -35.5t43.5 -55.5t14.5 -73.5q0 -34 -8.5 -64t-25 -53.5t-40 -41t-53.5 -28.5l174 -292h-92l-160 274h-113z"/>
      <glyph glyph-name="S" unicode="S" horiz-adv-x="500"
             d="M53 8v73q23 -5 42.5 -8.5t38.5 -5.5t37.5 -3t38.5 -1q35 0 64 8.5t49.5 23.5t31 36.5t10.5 47.5q0 21 -5.5 37t-18 29.5t-32 24.5t-47.5 21l-81 28q-27 9 -49 23.5t-38 34t-24.5 44t-8.5 53.5q0 41 16 75.5t46 59.5t72 39t94 14q19 0 36.5 -0.5t33.5 -2t31.5 -4
t30.5 -5.5l-8 -70q-17 3 -32 5.5t-30.5 4t-32 2.5t-34.5 1q-34 0 -61 -8t-45.5 -22t-28 -33t-9.5 -42q0 -20 5 -35t16 -27t27.5 -21.5t40.5 -17.5l84 -28q34 -11 58.5 -26.5t40.5 -36t24 -46t8 -57.5q0 -44 -17 -81t-48.5 -63.5t-76 -40.5t-98.5 -14q-21 0 -40 1t-37.5 2.5
t-36.5 4t-37 6.5z"/>
      <glyph glyph-name="T" unicode="T" horiz-adv-x="525"
             d="M302 587v-587h-79v587h-192v69h463v-69h-192z"/>
      <glyph glyph-name="U" unicode="U" horiz-adv-x="649"
             d="M319 -7q-56 0 -98 14.5t-71 43.5t-43.5 72.5t-14.5 101.5v431h79v-421q0 -46 9 -78t28 -52.5t48 -30.5t70 -10q37 0 65.5 10.5t48 31.5t29.5 52t10 71v427h77v-424q0 -57 -16.5 -101.5t-47.5 -75t-75 -46.5t-98 -16z"/>
      <glyph glyph-name="V" unicode="V" horiz-adv-x="566"
             d="M225 0l-208 656h89l176 -577h4l180 577h82l-211 -656h-112z"/>
      <glyph glyph-name="W" unicode="W" horiz-adv-x="869"
             d="M200 0l-183 656h89l149 -577h5l139 405l-57 172h84l186 -577h5l152 577h83l-187 -656h-105l-123 381h-4l-128 -381h-105z"/>
      <glyph glyph-name="X" unicode="X" horiz-adv-x="546"
             d="M31 656h94l148 -248h4l148 248h86l-196 -316l213 -340h-93l-165 268h-4l-162 -268h-86l210 336z"/>
      <glyph glyph-name="Y" unicode="Y" horiz-adv-x="543"
             d="M311 270v-270h-79v270l-215 386h95l164 -306h3l163 306h84z"/>
      <glyph glyph-name="Z" unicode="Z" horiz-adv-x="514"
             d="M61 586v70h406v-72l-335 -510v-4h339v-70h-428v72l335 511v3h-317z"/>
      <glyph glyph-name="bracketleft" unicode="[" horiz-adv-x="256"
             d="M91 656h149v-55h-87v-722h87v-54h-149v831z"/>
      <glyph glyph-name="backslash" unicode="\" horiz-adv-x="321"
             d="M-21 648l59 22l304 -836l-59 -22z"/>
      <glyph glyph-name="bracketright" unicode="]" horiz-adv-x="256"
             d="M165 -175h-149v55h87v722h-87v54h149v-831z"/>
      <glyph glyph-name="asciicircum" unicode="^"
             d="M266 668l218 -219l-47 -47l-171 172l-171 -172l-47 47z"/>
      <glyph glyph-name="underscore" unicode="_" horiz-adv-x="518"
             d="M9 -114v66h500v-66h-500z"/>
      <glyph glyph-name="grave" unicode="`" horiz-adv-x="425"
             d="M196 696l99 -145h-66l-119 145h86z"/>
      <glyph glyph-name="a" unicode="a" horiz-adv-x="485"
             d="M124 132q0 -16 5.5 -29.5t16.5 -23t27.5 -14.5t38.5 -5q18 0 34.5 2t32 6.5t30.5 11t30 15.5v115q-1 0 -16.5 0.5t-24.5 1t-17.5 0.5h-17.5q-37 0 -64 -6t-43.5 -17t-24 -25.5t-7.5 -31.5zM412 338v-338h-71v34q-18 -11 -34.5 -18.5t-33.5 -12.5t-35.5 -7t-41.5 -2
q-35 0 -63 9.5t-48 27t-30.5 42t-10.5 53.5q0 32 14 58.5t41.5 46.5t69 31t96.5 11h20.5h15.5t17.5 -0.5t20.5 -0.5v53q0 24 -7 43t-20.5 31.5t-35 19t-49.5 6.5q-17 0 -34.5 -2t-35 -6t-36 -10t-37.5 -14l-16 64q23 10 43.5 17.5t40.5 12t41 6.5t45 2q42 0 74.5 -10.5
t54.5 -30.5t33.5 -49.5t11.5 -66.5z"/>
      <glyph glyph-name="b" unicode="b" horiz-adv-x="535"
             d="M485 259q0 -62 -18.5 -111.5t-53 -84t-81.5 -52t-104 -17.5q-20 0 -37.5 0.5t-35 1.5t-36.5 3.5t-39 5.5v688l76 6v-237q16 9 31.5 15t31.5 10t32 6t34 2q45 0 82 -14.5t63.5 -44t40.5 -74t14 -103.5zM406 252q0 45 -10 78t-28.5 54t-45 31t-60.5 10q-14 0 -27 -1.5
t-26 -4.5t-26 -8t-27 -11v-333q11 -2 21.5 -3t20 -1.5t19.5 -1t21 -0.5q36 0 66.5 11.5t53.5 35t35.5 60t12.5 84.5z"/>
      <glyph glyph-name="c" unicode="c" horiz-adv-x="408"
             d="M380 483l-9 -68q-15 3 -27 5.5t-22.5 4t-22 2t-24.5 0.5q-30 0 -56.5 -12t-46.5 -35.5t-31.5 -57t-11.5 -75.5q0 -48 11.5 -83t32 -57.5t48 -33t59.5 -10.5q14 0 27 1t25.5 2.5t24.5 4.5l24 6v-68q-13 -4 -25.5 -6.5t-25.5 -4.5t-27.5 -3t-31.5 -1q-49 0 -89 14.5
t-69.5 45.5t-46 78.5t-16.5 111.5q0 59 18.5 106t50 80t72.5 49.5t86 16.5q15 0 27.5 -0.5t24.5 -2t24.5 -4t26.5 -6.5z"/>
      <glyph glyph-name="d" unicode="d" horiz-adv-x="535"
             d="M290 428q-37 0 -66.5 -12.5t-51 -37t-32.5 -60t-11 -79.5q0 -43 10.5 -76.5t29.5 -55.5t45.5 -33t58.5 -11q16 0 30 2t26.5 5.5t24.5 9.5t25 14v326q-12 2 -22.5 3.5t-21.5 2.5t-22 1.5t-23 0.5zM455 699v-699h-74v32q-13 -9 -27.5 -16t-30.5 -12t-33 -7.5t-34 -2.5
q-45 0 -82.5 15.5t-65 45.5t-43 75t-15.5 102q0 62 18 111.5t51 83t78 51t99 17.5q13 0 24.5 -0.5t21.5 -2t19.5 -3.5t17.5 -5v209z"/>
      <glyph glyph-name="e" unicode="e" horiz-adv-x="484"
             d="M50 244q0 61 15.5 109t43.5 80t65.5 48.5t79.5 16.5q44 0 78.5 -12.5t58.5 -37.5t36.5 -61.5t12.5 -84.5v-16.5v-14t-0.5 -15t-1.5 -14.5h-312q0 -46 11.5 -80t32.5 -56t49.5 -32.5t63.5 -10.5q21 0 40 2t37 5.5t36 9.5t36 14v-68q-20 -9 -38 -14.5t-36.5 -9.5t-39 -6
t-44.5 -2q-51 0 -92.5 15t-71 45.5t-45 78t-15.5 111.5zM129 303h230q0 32 -7 57t-21 41.5t-34.5 24.5t-46.5 8q-23 0 -43 -9t-36.5 -26t-27 -41.5t-14.5 -54.5z"/>
      <glyph glyph-name="f" unicode="f" horiz-adv-x="312"
             d="M95 427h-60v62h60v56q0 36 10.5 64.5t31.5 49t52.5 31.5t72.5 11q9 0 18.5 -0.5t18 -2t16.5 -2.5t15 -3l-9 -65q-7 2 -14.5 3.5t-15 2t-15.5 1t-16 0.5q-23 0 -40 -5.5t-28 -16.5t-16 -27.5t-5 -38.5v-58h126v-62h-126v-427h-76v427z"/>
      <glyph glyph-name="g" unicode="g" horiz-adv-x="496"
             d="M236 208q30 0 51.5 6.5t36 20.5t21.5 36.5t7 53.5q0 27 -7.5 47.5t-22 34t-35 20.5t-46.5 7t-47 -7t-36 -21.5t-22.5 -36t-7.5 -50.5q0 -30 8 -51.5t22.5 -34.5t34 -19t43.5 -6zM140 119q0 -9 3.5 -16.5t10.5 -13t19 -8.5t28 -3l131 -4q34 -1 59.5 -9t42 -22t24.5 -33
t8 -43q0 -35 -14.5 -64.5t-44 -51.5t-74 -34t-102.5 -12q-46 0 -83 9t-62.5 26t-39 41t-13.5 52q0 16 6 32.5t17 30.5t26 25.5t31 18.5v4q-8 4 -15.5 10t-12.5 14t-8 17t-3 20t3.5 21.5t10.5 19.5t17 16.5t22 11.5v3q-17 9 -31 21.5t-23.5 29.5t-15 38t-5.5 46q0 42 13 76
t38.5 57.5t62 36t81.5 12.5q9 0 19.5 -0.5t20.5 -1.5t19 -2.5t16 -3.5h150v-57h-92v-3q11 -7 19.5 -18t15 -24.5t10 -29.5t3.5 -33q0 -42 -13.5 -73.5t-39.5 -53t-63.5 -32.5t-84.5 -11q-8 0 -15 0.5l-14 1t-13.5 2t-12.5 2.5q-7 -2 -12.5 -6t-10 -9t-7 -11t-2.5 -12z
M102 -54q0 -18 9 -32.5t26.5 -25t42.5 -16t58 -5.5q42 0 72.5 6t50 17.5t29 27t9.5 34.5q0 13 -4 23t-13 16.5t-23.5 10.5t-35.5 5l-167 8q-13 -5 -23 -11.5t-17 -15t-10.5 -19.5t-3.5 -23z"/>
      <glyph glyph-name="h" unicode="h"
             d="M382 0v321q0 24 -7 43t-21 32.5t-34.5 21t-46.5 7.5q-17 0 -31.5 -1.5t-28 -4.5t-27.5 -7.5t-30 -11.5v-400h-76v693l76 6v-238q17 9 32.5 15.5t31 10.5t32 6t35.5 2q41 0 73 -11t54 -32t33 -52t11 -71v-329h-76z"/>
      <glyph glyph-name="i" unicode="i" horiz-adv-x="236"
             d="M69 649q0 11 3.5 20.5t10 15.5t15.5 9.5t20 3.5t20 -3.5t15 -9.5t9.5 -15t3.5 -21q0 -11 -3.5 -20t-9.5 -15t-15 -9.5t-20 -3.5t-20 3.5t-15.5 9.5t-10 15t-3.5 20zM156 492v-492h-76v486z"/>
      <glyph glyph-name="j" unicode="j" horiz-adv-x="236"
             d="M69 649q0 11 3.5 20.5t10 15.5t15.5 9.5t20 3.5t20 -3.5t15 -9.5t9.5 -15t3.5 -21q0 -11 -3.5 -20t-9.5 -15t-15 -9.5t-20 -3.5t-20 3.5t-15.5 9.5t-10 15t-3.5 20zM156 492v-520q0 -38 -10.5 -67t-30 -49.5t-45.5 -33t-58 -18.5l-10 65q20 6 34.5 15t24.5 21t14.5 28.5
t4.5 38.5v514z"/>
      <glyph glyph-name="k" unicode="k" horiz-adv-x="477"
             d="M156 234v-234h-76v693l76 6v-399h44l163 189h94l-190 -211l207 -278h-95l-172 234h-51z"/>
      <glyph glyph-name="l" unicode="l" horiz-adv-x="236"
             d="M156 699v-699h-76v693z"/>
      <glyph glyph-name="m" unicode="m" horiz-adv-x="825"
             d="M676 0v320q0 24 -6.5 43.5t-20 33t-33.5 21t-46 7.5q-17 0 -31 -1.5t-27 -4.5t-26.5 -7.5t-31.5 -11.5v-400h-76v322q0 25 -6 44.5t-19 32.5t-33 19.5t-48 6.5q-18 0 -32.5 -1.5t-27.5 -4t-26 -7.5t-30 -12v-400h-76v486l73 6v-33q18 10 33.5 17t31 11t32 6t35.5 2
q23 0 43.5 -3t37.5 -9.5t31 -16t25 -21.5q22 14 41.5 23.5t38.5 15t38.5 8.5t42.5 3q41 0 73 -11t53 -32t32 -52t11 -71v-329h-76z"/>
      <glyph glyph-name="n" unicode="n"
             d="M382 0v321q0 24 -7 43t-21 32.5t-34.5 21t-46.5 7.5q-17 0 -31 -1.5t-28 -4.5t-28 -7.5t-30 -11.5v-400h-76v486l73 6v-33q17 10 33 16.5t31.5 11t32.5 6.5t37 2q41 0 73 -11t54 -32t33 -52t11 -71v-329h-76z"/>
      <glyph glyph-name="o" unicode="o" horiz-adv-x="542"
             d="M492 250q0 -59 -18 -107.5t-49.5 -82.5t-73 -51.5t-87.5 -17.5q-49 0 -88.5 15.5t-67.5 47t-43 78t-15 106.5q0 59 18 108t49.5 82.5t72.5 51.5t87 18q49 0 89 -16t68 -47t43 -77.5t15 -107.5zM413 247q0 45 -9.5 79.5t-28 57.5t-45 34.5t-60.5 11.5q-31 0 -57 -12.5
t-45 -37t-29 -59.5t-10 -79q0 -45 9.5 -79.5t28 -57.5t45 -34.5t60.5 -11.5q31 0 57 13t45 37.5t29 59.5t10 78z"/>
      <glyph glyph-name="p" unicode="p" horiz-adv-x="535"
             d="M238 61q36 0 67 12t53.5 35.5t35 59t12.5 81.5t-10 79.5t-28.5 55t-45 31.5t-60.5 10q-14 0 -27 -1.5t-26 -4.5t-26 -7.5t-27 -11.5v-331q11 -2 21 -3.5t20 -2.5t20 -1.5t21 -0.5zM80 -191v677l73 6v-31q15 8 30.5 14.5t31.5 11t33.5 6.5t36.5 2q45 0 82 -14.5
t63.5 -44.5t40.5 -75.5t14 -105.5q0 -61 -18.5 -109.5t-53 -82.5t-82 -51.5t-104.5 -17.5q-10 0 -19 0.5t-17.5 1t-17 2t-17.5 3.5v-192h-76z"/>
      <glyph glyph-name="q" unicode="q" horiz-adv-x="535"
             d="M455 484v-675h-76v217q-16 -9 -31 -15t-30 -10t-31.5 -6t-35.5 -2q-46 0 -83 14.5t-63.5 44t-40.5 74.5t-14 105q0 62 19 111.5t53.5 83.5t82 51.5t104.5 17.5q17 0 33 -0.5t32.5 -2t35.5 -3.5t45 -5zM297 428q-36 0 -66.5 -11.5t-53.5 -35t-35.5 -59.5t-12.5 -84
q0 -45 9.5 -78t28 -54.5t45.5 -31.5t62 -10q15 0 27.5 1t24.5 4t25 7.5t28 11.5v333q-11 2 -21 3.5t-19.5 2t-20 1t-21.5 0.5z"/>
      <glyph glyph-name="r" unicode="r" horiz-adv-x="331"
             d="M316 488l-9 -75q-8 2 -15 3.5t-13.5 2.5t-13 1.5t-14.5 0.5q-12 0 -23.5 -3t-22.5 -9t-23 -15.5t-26 -23.5v-370h-76v486l75 6v-57q14 16 27 27.5t25.5 18.5t25.5 10.5t26 3.5q8 0 15 -0.5t13.5 -1t13.5 -2t15 -3.5z"/>
      <glyph glyph-name="s" unicode="s" horiz-adv-x="404"
             d="M41 10v70q17 -5 34 -8.5t34.5 -5.5t35.5 -3t37 -1q26 0 46 5.5t34 15t21 23t7 29.5q0 14 -4.5 25.5t-14.5 20.5t-25.5 16.5t-37.5 13.5l-57 17q-25 7 -44.5 18.5t-32.5 27t-20 35.5t-7 44q0 30 12.5 56t36 45.5t56.5 30t73 10.5q17 0 32.5 -0.5t30 -2t28.5 -3.5t27 -5
l-8 -67q-15 3 -28.5 5t-27 3t-27.5 1.5t-31 0.5q-24 0 -43 -5t-32 -14t-19.5 -21.5t-6.5 -26.5t4 -24.5t12.5 -18.5t21.5 -14.5t31 -11.5l57 -15q30 -8 52 -20t37 -27.5t22 -35t7 -42.5q0 -34 -13.5 -63t-38 -50t-59 -32.5t-75.5 -11.5q-21 0 -39 1t-34.5 3t-32 5t-31.5 7z
"/>
      <glyph glyph-name="t" unicode="t" horiz-adv-x="332"
             d="M36 427v62h59v86l75 11v-97h128v-62h-128v-275q0 -23 5.5 -40t16 -28t24.5 -16.5t31 -5.5q9 0 17 0.5t15.5 1.5t16 2.5t17.5 3.5v-65q-12 -3 -22.5 -5t-20.5 -3.5t-20 -2t-22 -0.5q-29 0 -52.5 8t-42 26t-28.5 47.5t-10 71.5v280h-59z"/>
      <glyph glyph-name="u" unicode="u" horiz-adv-x="527"
             d="M149 492v-323q0 -25 7 -45t20.5 -33t33.5 -20t46 -7q18 0 32 1.5t26.5 4.5t25.5 7.5t31 11.5v397l76 6v-492h-74v30q-16 -10 -31 -16.5t-30.5 -11t-32.5 -7t-36 -2.5q-42 0 -73.5 10.5t-53 32t-32.5 52.5t-11 72v326z"/>
      <glyph glyph-name="v" unicode="v" horiz-adv-x="463"
             d="M186 0l-170 489h87l134 -419h5l127 419h78l-164 -489h-97z"/>
      <glyph glyph-name="w" unicode="w" horiz-adv-x="718"
             d="M700 489l-154 -489h-97l-90 296h-5l-86 -296h-97l-155 489h87l119 -419h5l97 321l-32 98h84l124 -419h5l117 419h78z"/>
      <glyph glyph-name="x" unicode="x" horiz-adv-x="474"
             d="M449 0h-90l-125 198h-4l-122 -198h-84l167 249l-159 240h92l115 -184h4l114 184h84l-159 -235z"/>
      <glyph glyph-name="y" unicode="y" horiz-adv-x="452"
             d="M185 19l-168 470h84l136 -404h4l117 404h77l-178 -555q-11 -36 -26.5 -61t-34.5 -40t-41.5 -22t-49.5 -7q-7 0 -14 0.5t-13.5 1t-12.5 1.5t-12 3v64q7 -1 13.5 -2t12 -1.5t11 -0.5h10.5q17 0 30.5 4.5t25 13.5t20 24t16.5 37l24 70h-31z"/>
      <glyph glyph-name="z" unicode="z" horiz-adv-x="405"
             d="M44 426v63h326v-63l-256 -359v-4h261v-63h-345v64l256 359v3h-242z"/>
      <glyph glyph-name="braceleft" unicode="{" horiz-adv-x="323"
             d="M144 348v196q0 29 7.5 51t21.5 37.5t33 23t43 7.5h11t12.5 -0.5t12.5 -1.5t10 -2v-45q-25 0 -41.5 -3t-27 -10t-15.5 -18.5t-5 -27.5v-194q0 -25 -7.5 -46t-23.5 -37.5t-41 -26.5t-59 -12v-2q34 -3 59 -10.5t41 -20.5t23.5 -31t7.5 -42v-199q0 -17 6 -29.5t17.5 -20.5
t29.5 -12t42 -4v-43l-10 -2.5t-13 -2.5t-13.5 -1.5t-12.5 -0.5q-23 0 -42.5 6.5t-34.5 18.5t-23 30t-8 40v208q0 17 -6 30t-20 24t-36.5 20t-55.5 16v58q32 4 55 11.5t36.5 17.5t20 22.5t6.5 27.5z"/>
      <glyph glyph-name="bar" unicode="|" horiz-adv-x="241"
             d="M89 656h63v-830h-63v830z"/>
      <glyph glyph-name="braceright" unicode="}" horiz-adv-x="323"
             d="M180 134v-197q0 -29 -7.5 -51t-22 -37.5t-33.5 -23t-42 -7.5q-5 0 -11 0.5t-12.5 1t-12.5 1.5t-10 2v45q24 0 41 3t27 10t15 18t5 28v193q0 25 7.5 46t23.5 37.5t40.5 26.5t58.5 12v3q-34 2 -59 10t-40.5 21t-23 31t-7.5 42v199q0 17 -6 29t-18 20t-29.5 12t-41.5 4v43
q5 2 11 3t12.5 2t13 1.5t12.5 0.5q23 0 42.5 -6.5t34.5 -19t23.5 -30t8.5 -39.5v-207q0 -17 6 -30t20 -24t36 -20.5t54 -16.5v-58q-32 -4 -54 -11t-36 -17t-20 -22.5t-6 -27.5z"/>
      <glyph glyph-name="asciitilde" unicode="~"
             d="M437 342l31 -45q-12 -17 -23.5 -30t-26 -22t-32 -14t-38.5 -5t-40.5 9.5t-47 29t-44.5 28.5t-35 9q-10 0 -21.5 -3.5t-22.5 -10t-21.5 -16t-20.5 -21.5l-32 46q12 17 27 30.5t31 23t33.5 14.5t36.5 5q22 0 42.5 -10t47 -29t42.5 -28t34 -9q11 0 21.5 3t20.5 9.5
t19.5 15.5t18.5 20z"/>
      <glyph glyph-name="uni00A0" unicode="&#xa0;" horiz-adv-x="182"
      />
      <glyph glyph-name="exclamdown" unicode="&#xa1;" horiz-adv-x="287"
             d="M85 435q0 14 3.5 25t11 19t18.5 12.5t25 4.5t24.5 -4t18 -11.5t11.5 -19t4 -26.5q0 -13 -4 -24t-11.5 -19t-18 -12t-24.5 -4t-24.5 4t-18 11.5t-11.5 18.5t-4 25zM182 -161l-84 -9l7 299v182l77 4v-476z"/>
      <glyph glyph-name="cent" unicode="&#xa2;"
             d="M331 -21h-59v101q-41 6 -75 23.5t-59.5 48t-39.5 74.5t-14 101q0 51 15 93.5t41 74t60 51.5t72 28v103h59v-98q14 0 26 -1t24.5 -2.5t24.5 -4t24 -5.5l-9 -67q-15 3 -28 5t-25.5 3.5t-25 2t-25.5 0.5q-30 0 -58 -12t-49.5 -35t-34 -57t-12.5 -75q0 -47 12.5 -82.5
t34.5 -58t50.5 -33t61.5 -10.5q14 0 28.5 1t28.5 2.5t27.5 4.5t25.5 6v-69q-11 -3 -22.5 -5.5t-24.5 -4.5t-26.5 -3t-27.5 -2v-98z"/>
      <glyph glyph-name="sterling" unicode="&#xa3;"
             d="M219 385h154v-66h-154v-112q0 -28 -2.5 -49.5t-7.5 -37.5t-12 -28.5t-16 -22.5h172q16 0 31.5 1.5t30.5 5t29 8t28 10.5v-71q-11 -6 -23.5 -10t-27.5 -7t-33 -4.5t-41 -1.5h-298v69h47q11 10 19.5 22.5t14 28t8 35.5t2.5 45v119h-80v66h80v107q0 40 12 71.5t35.5 53.5
t58 33.5t79.5 11.5q14 0 27 -0.5t25.5 -2t24 -4t22.5 -5.5v-71q-11 3 -23.5 5.5t-26 4t-27.5 2.5t-27 1q-25 0 -44 -6.5t-31.5 -19t-19 -30t-6.5 -39.5v-112z"/>
      <glyph glyph-name="currency" unicode="&#xa4;"
             d="M165 296q0 -21 7.5 -39t21.5 -32t32 -21.5t39 -7.5t39 7.5t32 21.5t21.5 32t7.5 39t-7.5 39t-21.5 32t-32 21.5t-39 7.5t-39 -7.5t-32 -21.5t-21.5 -32t-7.5 -39zM100 296q0 12 1.5 24t5 23.5t9 22.5t12.5 21l-56 55l47 47l55 -56q10 7 20.5 12t22 8.5t23.5 5.5t25 2
q12 0 24 -2t23.5 -5.5t22.5 -8.5t21 -12l55 56l48 -47l-57 -55q7 -10 12 -21t8.5 -22.5t5.5 -23.5t2 -24q0 -13 -2 -25t-5.5 -23.5t-8.5 -22t-12 -20.5l56 -54l-47 -47l-55 55q-10 -7 -20.5 -12.5t-22 -9t-23.5 -5t-25 -1.5t-25 1.5t-23.5 5t-22 9t-20.5 12.5l-55 -56
l-47 47l56 55q-7 10 -12.5 20.5t-9 22t-5 23.5t-1.5 25z"/>
      <glyph glyph-name="yen" unicode="&#xa5;"
             d="M69 186h157v82h-157v66h123l-175 322h95l158 -306h3l157 306h84l-175 -322h124v-66h-158v-82h158v-66h-158v-120h-79v120h-157v66z"/>
      <glyph glyph-name="brokenbar" unicode="&#xa6;" horiz-adv-x="241"
             d="M89 656h63v-276h-63v276zM89 102h63v-276h-63v276z"/>
      <glyph glyph-name="section" unicode="&#xa7;" horiz-adv-x="500"
             d="M150 247q0 -25 8.5 -47.5t24.5 -39t37.5 -25.5t46.5 -9t46.5 9t37.5 25.5t25 39t9 47.5t-9 47.5t-25 39.5t-37.5 26t-46.5 9t-46.5 -9t-37.5 -26t-24.5 -39t-8.5 -48zM421 650l-8 -70q-17 3 -32 5.5t-30.5 4t-32 2.5t-34.5 1q-34 0 -61 -8t-45.5 -22t-28 -33t-9.5 -42
q0 -13 2 -24t6 -20.5t11 -17.5t16 -15q10 6 21 11t22.5 8.5t23.5 5t25 1.5q40 0 75 -14t60.5 -39t40 -59.5t14.5 -74.5q0 -18 -3.5 -36t-9.5 -35t-15 -31.5t-21 -26.5q9 -10 16 -22t11.5 -25.5t6.5 -28.5t2 -32q0 -44 -17.5 -80t-50 -62.5t-76.5 -40.5t-96 -14q-21 0 -40 1
t-37 3t-36 4.5t-38 6.5v73q23 -5 42.5 -8.5t38.5 -5.5t37.5 -3t38.5 -1q36 0 64.5 8.5t49 24t31.5 36.5t11 47q0 10 -2 20t-5.5 18.5t-9 16.5t-13.5 15q-8 -4 -16 -6.5t-16.5 -4t-17.5 -2.5t-19 -1q-40 0 -75 13.5t-60.5 38.5t-39.5 59.5t-14 74.5q0 15 2 30.5t6.5 29.5
t10.5 27.5t15 24.5q-12 11 -21.5 24t-16 28t-10 31.5t-3.5 34.5q0 41 16 75.5t46 60t72 39t94 13.5q19 0 36.5 -0.5t33.5 -2t31.5 -4t30.5 -5.5z"/>
      <glyph glyph-name="dieresis" unicode="&#xa8;" horiz-adv-x="436"
             d="M254 611q0 11 3 20t9.5 15t15 9t18.5 3q11 0 19.5 -3t15 -9t9.5 -15t3 -20t-3 -20t-9.5 -15t-15 -9t-19.5 -3t-19.5 3t-14.5 9t-9 15t-3 20zM98 611q0 11 3 20t9 15t14.5 9t19.5 3t19.5 -3t14.5 -9t9 -15t3 -20t-3 -20t-9 -15t-14.5 -9t-19.5 -3t-19.5 3t-14.5 9t-9 14.5
t-3 20.5z"/>
      <glyph glyph-name="copyright" unicode="&#xa9;" horiz-adv-x="788"
             d="M54 327q0 69 26.5 130.5t73.5 108.5t109 73.5t131 26.5q68 0 130 -26.5t109 -73.5t73.5 -109t26.5 -130q0 -69 -26.5 -131t-73.5 -109t-108.5 -73.5t-130.5 -26.5t-131 26.5t-109 73.5t-73.5 109t-26.5 131zM106 327q0 -59 22.5 -112t62 -93.5t92.5 -63t111 -22.5
t110.5 22.5t92.5 63t62 93.5t22 112q0 58 -22.5 111t-62 93.5t-92 63.5t-110.5 23t-111 -23t-92.5 -63.5t-62 -93.5t-22.5 -111zM509 193v-52q-14 -3 -24.5 -4.5t-21 -2.5t-22.5 -1.5t-27 -0.5q-44 0 -80.5 12t-63.5 36t-41.5 59.5t-14.5 81.5q0 51 17 90.5t46 65.5t67 39
t80 13q12 0 22.5 -0.5t20.5 -1t19.5 -2t21.5 -3.5l-4 -54q-15 2 -24.5 3.5t-18.5 2.5t-18 1.5t-21 0.5q-30 0 -56 -9.5t-46 -28t-31.5 -46.5t-11.5 -64t11 -63t30.5 -45t45.5 -26.5t57 -8.5q14 0 24 0.5t19.5 1t20.5 2t24 4.5z"/>
      <glyph glyph-name="ordfeminine" unicode="&#xaa;" horiz-adv-x="357"
             d="M98 425q0 -9 4 -17t11.5 -13.5t19.5 -8.5t27 -3q12 0 22.5 1t20.5 3t19.5 5t19.5 8v70q-6 0 -13 0.5t-13.5 0.5h-12h-12.5q-25 0 -43 -3.5t-29 -10t-16 -14.5t-5 -18zM304 552v-215h-60v21q-12 -7 -23.5 -11.5t-23.5 -7.5t-25.5 -4.5t-29.5 -1.5q-26 0 -46.5 6
t-34.5 17.5t-21.5 28t-7.5 36.5q0 22 10 39.5t30 30.5t50 20t69 7h13.5h12t13 -0.5t12.5 -0.5v28q0 15 -5 26t-14.5 18.5t-24.5 11t-35 3.5q-13 0 -25 -1.5t-24.5 -4t-25 -6.5t-27.5 -9l-11 54q16 6 31 11t29.5 7.5t30 4t32.5 1.5q31 0 55.5 -7t41.5 -21t25.5 -34.5
t8.5 -46.5z"/>
      <glyph glyph-name="guillemotleft" unicode="&#xab;" horiz-adv-x="571"
             d="M412 36l-162 214l162 214h87l-162 -209l162 -219h-87zM228 36l-162 214l162 214h87l-162 -209l162 -219h-87z"/>
      <glyph glyph-name="logicalnot" unicode="&#xac;"
             d="M68 353v67h394v-244h-67v177h-327z"/>
      <glyph glyph-name="uni00AD" unicode="&#xad;" horiz-adv-x="396"
             d="M68 251v71h259v-71h-259z"/>
      <glyph glyph-name="registered" unicode="&#xae;" horiz-adv-x="788"
             d="M54 327q0 69 26.5 130.5t73.5 108.5t109 73.5t131 26.5q68 0 130 -26.5t109 -73.5t73.5 -109t26.5 -130q0 -69 -26.5 -131t-73.5 -109t-108.5 -73.5t-130.5 -26.5t-131 26.5t-109 73.5t-73.5 109t-26.5 131zM106 327q0 -59 22.5 -112t62 -93.5t92.5 -63t111 -22.5
t110.5 22.5t92.5 63t62 93.5t22 112q0 58 -22.5 111t-62 93.5t-92 63.5t-110.5 23t-111 -23t-92.5 -63.5t-62 -93.5t-22.5 -111zM325 477v-138h50q24 0 42 4.5t30 13.5t18 23t6 33q0 16 -5 27.5t-16 20t-27 12.5t-38 4h-60zM325 289v-153h-59v389h120q37 0 65 -7.5t46 -21.5
t27 -33.5t9 -43.5q0 -22 -6 -40.5t-17 -33t-26.5 -25t-34.5 -16.5l112 -168h-72l-101 153h-63z"/>
      <glyph glyph-name="macron" unicode="&#xaf;" horiz-adv-x="397"
             d="M77 564v57h241v-57h-241z"/>
      <glyph glyph-name="degree" unicode="&#xb0;" horiz-adv-x="386"
             d="M42 509q0 31 12 59.5t33 49.5t49 33t59 12t59.5 -12t49.5 -33t33 -49.5t12 -59.5t-12 -59t-33 -49t-49.5 -33t-59.5 -12t-59 12t-49 33t-33 49t-12 59zM103 509q0 -19 7 -35.5t20 -29.5t29.5 -20t35.5 -7t36 7t30 20t20 29.5t7 35.5t-7 36t-20 30t-30 20t-36 7t-35.5 -7
t-29.5 -20t-20 -30t-7 -36z"/>
      <glyph glyph-name="plusminus" unicode="&#xb1;"
             d="M68 265v67h164v164h67v-164h163v-67h-163v-162h-67v162h-164zM68 0v67h394v-67h-394z"/>
      <glyph glyph-name="uni00B2" unicode="&#xb2;" horiz-adv-x="385"
             d="M70 617v57q14 4 27 6.5t26 4.5t26 3t26 1q34 0 61 -8t46 -23t29 -36.5t10 -47.5q0 -20 -6 -38t-18 -35t-30.5 -33t-43.5 -33l-37 -24q-18 -11 -31 -22t-22 -23t-14 -25t-6 -28h221v-54h-271l-12 50q1 20 7 38.5t17 35t27 32t37 30.5l44 28q19 13 31.5 23t21 20.5t13 22.5
t4.5 26q0 15 -6 27t-17.5 20.5t-28 13t-35.5 4.5q-13 0 -24.5 -0.5t-22.5 -2t-23 -4t-26 -6.5z"/>
      <glyph glyph-name="uni00B3" unicode="&#xb3;" horiz-adv-x="385"
             d="M64 630v55h243l14 -51q-9 -22 -19.5 -39.5t-23.5 -32t-29 -26t-36 -22.5v-2q27 -4 48.5 -14t36 -24.5t22 -33.5t7.5 -41q0 -30 -15.5 -57t-43.5 -47t-67.5 -31t-85.5 -11h-56v53h55q34 0 61.5 6.5t46.5 18t29 28t10 35.5q0 17 -6 31t-18.5 24t-31.5 17t-45 10
q-8 -4 -16.5 -7.5t-17 -6t-17 -4.5t-18.5 -4l-11 44q34 8 62.5 20.5t51 29t38.5 37t25 45.5h-193z"/>
      <glyph glyph-name="acute" unicode="&#xb4;" horiz-adv-x="425"
             d="M179 551l98 145h87l-119 -145h-66z"/>
      <glyph glyph-name="uni00B5" unicode="&#xb5;" horiz-adv-x="535"
             d="M80 0zM454 492v-393q0 -9 2 -15.5t5.5 -11t8.5 -7t11 -2.5q4 0 8.5 0.5t8.5 1t8.5 1.5t8.5 2v-59q-6 -4 -13 -6.5t-15 -4.5t-17 -3t-20 -1q-10 0 -19.5 3t-17.5 8.5t-13.5 13.5t-8.5 18q-17 -12 -34.5 -20.5t-35.5 -13.5t-35 -7.5t-35 -2.5q-16 0 -30.5 2t-27 6
t-23.5 10.5t-20 14.5v-57q0 -27 1.5 -49t5.5 -40t9.5 -35t13.5 -36h-74q-8 17 -13 32.5t-7.5 32t-4 37.5t-1.5 49v526l76 6v-323q0 -27 7 -46.5t20.5 -32.5t33.5 -19.5t46 -6.5q18 0 32 1.5t27 4.5t26 7.5t31 11.5v397z"/>
      <glyph glyph-name="paragraph" unicode="&#xb6;" horiz-adv-x="660"
             d="M416 656h140v-859h-75v801h-59v-801h-54v305q-8 -3 -18 -5t-22 -3.5t-24 -2t-23 -0.5q-53 0 -96.5 16.5t-76 52t-50 91t-17.5 130.5q0 64 20 115.5t58 87.5t93.5 55t124.5 19q8 0 17 -0.5t23 -1t23 -0.5h16z"/>
      <glyph glyph-name="periodcentered" unicode="&#xb7;" horiz-adv-x="246"
             d="M63 296q0 14 4 25.5t11.5 20t19 13t25.5 4.5t25 -4t19 -12t12 -20t4 -27q0 -13 -4 -24.5t-12 -19.5t-19 -12.5t-25 -4.5t-25.5 4t-19 12t-11.5 19t-4 26z"/>
      <glyph glyph-name="cedilla" unicode="&#xb8;" horiz-adv-x="392"
             d="M147 -32l57 -4q20 -1 36 -6t26.5 -13.5t15.5 -19.5t5 -25q0 -20 -8.5 -36.5t-26 -29t-43.5 -19t-59 -6.5h-45v52h46q18 0 31 2t21.5 6t12.5 9.5t4 11.5q0 5 -3 10t-9.5 9t-17 7t-24.5 4l-19 2v46z"/>
      <glyph glyph-name="uni00B9" unicode="&#xb9;" horiz-adv-x="385"
             d="M79 617v49q15 4 31 8t32.5 6t32 3.5t28.5 1.5h41v-426h-63v368q-11 0 -23.5 -0.5t-25.5 -2t-26.5 -3.5t-26.5 -4z"/>
      <glyph glyph-name="ordmasculine" unicode="&#xba;" horiz-adv-x="389"
             d="M352 500q0 -39 -13 -70.5t-35.5 -54t-52 -34.5t-62.5 -12q-34 0 -62 10.5t-48 30.5t-31 50.5t-11 69.5t12.5 70.5t35.5 54t52 34.5t62 12q35 0 63 -10.5t48 -30.5t31 -50.5t11 -69.5zM287 498q0 26 -6 46.5t-18 34t-29.5 20.5t-39.5 7q-21 0 -38 -8t-29.5 -23t-19 -36
t-6.5 -47q0 -27 6.5 -47t18.5 -33.5t29 -20t39 -6.5q21 0 38 8t29.5 22.5t19 35.5t6.5 47z"/>
      <glyph glyph-name="guillemotright" unicode="&#xbb;" horiz-adv-x="571"
             d="M343 464l162 -214l-162 -214h-87l162 209l-162 219h87zM159 464l162 -214l-162 -214h-87l162 209l-162 219h87z"/>
      <glyph glyph-name="onequarter" unicode="&#xbc;" horiz-adv-x="828"
             d="M79 617v49q15 4 31 8t32.5 6t32 3.5t28.5 1.5h41v-426h-63v368q-11 0 -23.5 -0.5t-25.5 -2t-26.5 -3.5t-26.5 -4zM602 679l53 -31l-458 -792l-53 31zM702 278v-286h54v-54h-54v-88h-63v88h-186l-17 42q2 46 18 92.5t44 87t66 71.5t81 47h57zM496 -8h145v225h-1
q-29 -16 -54.5 -39.5t-45.5 -53t-31.5 -63.5t-12.5 -69z"/>
      <glyph glyph-name="onehalf" unicode="&#xbd;" horiz-adv-x="828"
             d="M79 617v49q15 4 31 8t32.5 6t32 3.5t28.5 1.5h41v-426h-63v368q-11 0 -23.5 -0.5t-25.5 -2t-26.5 -3.5t-26.5 -4zM602 679l53 -31l-458 -792l-53 31zM501 208v57q14 4 27 6.5t26 4.5t26 3t26 1q34 0 61 -8t46 -23t29 -36.5t10 -47.5q0 -20 -6 -38t-18 -35t-30.5 -33
t-43.5 -33l-37 -24q-18 -11 -31 -22t-22 -23t-14 -25t-6 -28h221v-54h-271l-12 50q1 20 7 38.5t17 35t27 32t37 30.5l44 28q19 13 31.5 23t21 20.5t13 22.5t4.5 26q0 15 -6 27t-17.5 20.5t-28 13t-35.5 4.5q-13 0 -24.5 -0.5t-22.5 -2t-23 -4t-26 -6.5z"/>
      <glyph glyph-name="threequarters" unicode="&#xbe;" horiz-adv-x="828"
             d="M64 630v55h243l14 -51q-9 -22 -19.5 -39.5t-23.5 -32t-29 -26t-36 -22.5v-2q27 -4 48.5 -14t36 -24.5t22 -33.5t7.5 -41q0 -30 -15.5 -57t-43.5 -47t-67.5 -31t-85.5 -11h-56v53h55q34 0 61.5 6.5t46.5 18t29 28t10 35.5q0 17 -6 31t-18.5 24t-31.5 17t-45 10
q-8 -4 -16.5 -7.5t-17 -6t-17 -4.5t-18.5 -4l-11 44q34 8 62.5 20.5t51 29t38.5 37t25 45.5h-193zM602 679l53 -31l-458 -792l-53 31zM702 278v-286h54v-54h-54v-88h-63v88h-186l-17 42q2 46 18 92.5t44 87t66 71.5t81 47h57zM496 -8h145v225h-1q-29 -16 -54.5 -39.5
t-45.5 -53t-31.5 -63.5t-12.5 -69z"/>
      <glyph glyph-name="questiondown" unicode="&#xbf;" horiz-adv-x="420"
             d="M203 435q0 14 3.5 25t11 19t18.5 12.5t25 4.5t24.5 -4t18 -11.5t11.5 -19t4 -26.5q0 -13 -4 -24t-11.5 -19t-18 -12t-24.5 -4t-24.5 4t-18 11.5t-11.5 18.5t-4 25zM58 -29q0 24 5.5 45t16.5 39.5t28.5 35.5t41.5 34l56 39q12 8 20.5 17t14 18t8 18.5t2.5 19.5t-1.5 19.5
t-5 19t-8 18t-9.5 16.5l64 5q7 -7 13 -17t10.5 -20.5t7 -21.5t2.5 -21q0 -17 -4 -33t-12.5 -30t-22 -28t-32.5 -28l-55 -41q-16 -12 -27 -23t-18 -22.5t-10 -24t-3 -27.5q0 -18 7 -32t20.5 -24.5t33 -16t44.5 -5.5q16 0 32 2t32 5.5t32.5 8.5t34.5 12v-66q-18 -8 -35.5 -14
t-35 -10t-36.5 -6t-40 -2q-40 0 -72 10t-54 28.5t-33.5 44.5t-11.5 58z"/>
      <glyph glyph-name="Agrave" unicode="&#xc0;" horiz-adv-x="567"
             d="M17 0zM389 245l-103 350h-9l-105 -350h217zM348 656l201 -656h-88l-53 177h-256l-52 -177h-83l207 656h124zM224 866l99 -145h-66l-119 145h86z"/>
      <glyph glyph-name="Aacute" unicode="&#xc1;" horiz-adv-x="567"
             d="M17 0zM389 245l-103 350h-9l-105 -350h217zM348 656l201 -656h-88l-53 177h-256l-52 -177h-83l207 656h124zM247 721l98 145h87l-119 -145h-66z"/>
      <glyph glyph-name="Acircumflex" unicode="&#xc2;" horiz-adv-x="567"
             d="M17 0zM389 245l-103 350h-9l-105 -350h217zM348 656l201 -656h-88l-53 177h-256l-52 -177h-83l207 656h124zM142 721l103 145h81l99 -145h-76l-60 88h-16l-61 -88h-70z"/>
      <glyph glyph-name="Atilde" unicode="&#xc3;" horiz-adv-x="567"
             d="M17 0zM389 245l-103 350h-9l-105 -350h217zM348 656l201 -656h-88l-53 177h-256l-52 -177h-83l207 656h124zM414 816l23 -46q-9 -13 -18 -23t-20 -17.5t-24.5 -11t-29.5 -3.5t-32 7.5t-38.5 22.5t-34.5 21.5t-23 6.5q-8 0 -16.5 -2.5t-17 -7t-17 -12t-15.5 -16.5l-23 46
q9 13 20.5 23.5t24 18t26 11.5t27.5 4q18 0 34.5 -7.5t38.5 -22.5t33 -21.5t22 -6.5q8 0 16 2.5t15.5 7t15 11t13.5 15.5z"/>
      <glyph glyph-name="Adieresis" unicode="&#xc4;" horiz-adv-x="567"
             d="M17 0zM389 245l-103 350h-9l-105 -350h217zM348 656l201 -656h-88l-53 177h-256l-52 -177h-83l207 656h124zM315 763q0 11 3 20t9.5 15t15 9t18.5 3q11 0 19.5 -3t15 -9t9.5 -15t3 -20t-3 -20t-9.5 -15t-15 -9t-19.5 -3t-19.5 3t-14.5 9t-9 15t-3 20zM159 763q0 11 3 20
t9 15t14.5 9t19.5 3t19.5 -3t14.5 -9t9 -15t3 -20t-3 -20t-9 -15t-14.5 -9t-19.5 -3t-19.5 3t-14.5 9t-9 14.5t-3 20.5z"/>
      <glyph glyph-name="Aring" unicode="&#xc5;" horiz-adv-x="567"
             d="M17 0zM389 245l-103 350h-9l-105 -350h217zM348 656l201 -656h-88l-53 177h-256l-52 -177h-83l207 656h124zM200 793q0 17 6.5 32t18 26t27 17.5t32.5 6.5t32 -6t26.5 -17.5t18 -26.5t6.5 -32t-6.5 -32.5t-18 -27t-26.5 -18t-32 -6.5t-32.5 6.5t-27 18t-18 27t-6.5 32.5z
M243 793q0 -9 3 -17t9 -13.5t13.5 -9t15.5 -3.5t15 3.5t13 9t9 13.5t3 17q0 8 -3 15.5t-9 13.5t-13 9.5t-15 3.5t-15.5 -3.5t-13.5 -9.5t-9 -13.5t-3 -15.5z"/>
      <glyph glyph-name="AE" unicode="&#xc6;" horiz-adv-x="809"
             d="M409 595l-181 -350h189v350h-8zM417 0v177h-223l-92 -177h-86l350 656h375v-69h-245v-215h221v-69h-221v-234h248v-69h-327z"/>
      <glyph glyph-name="Ccedilla" unicode="&#xc7;" horiz-adv-x="526"
             d="M53 0zM499 77v-68q-21 -5 -37 -7.5t-32 -4.5t-34.5 -3t-41.5 -1q-64 0 -119 20.5t-96 61t-63.5 100.5t-22.5 138q0 87 26 153.5t71 110t101.5 64.5t117.5 21q20 0 36 -1t31 -2.5t29.5 -3.5t32.5 -6l-9 -70q-22 4 -36.5 6.5t-27.5 4t-27 2t-33 0.5q-45 0 -86 -16.5
t-73.5 -50t-51 -84t-18.5 -116.5q0 -65 17.5 -114.5t48.5 -82.5t73 -49t90 -16q20 0 35.5 0.5t31 2t32 4.5t35.5 7zM281 -30l58 -5q26 -2 44.5 -7t30 -13.5t16.5 -19.5t5 -25q0 -19 -10 -36t-29 -29t-45.5 -19t-59.5 -7h-51v55h52q19 0 33 2t22.5 5.5t12.5 8.5t4 11
q0 5 -2.5 9t-9 7.5t-18.5 6t-30 4.5l-23 3v49z"/>
      <glyph glyph-name="Egrave" unicode="&#xc8;" horiz-adv-x="489"
             d="M98 0zM98 0v656h324v-69h-245v-215h221v-69h-221v-234h248v-69h-327zM191 866l99 -145h-66l-119 145h86z"/>
      <glyph glyph-name="Eacute" unicode="&#xc9;" horiz-adv-x="489"
             d="M98 0zM98 0v656h324v-69h-245v-215h221v-69h-221v-234h248v-69h-327zM213 721l98 145h87l-119 -145h-66z"/>
      <glyph glyph-name="Ecircumflex" unicode="&#xca;" horiz-adv-x="489"
             d="M98 0zM98 0v656h324v-69h-245v-215h221v-69h-221v-234h248v-69h-327zM108 721l103 145h81l99 -145h-76l-60 88h-16l-61 -88h-70z"/>
      <glyph glyph-name="Edieresis" unicode="&#xcb;" horiz-adv-x="489"
             d="M98 0zM98 0v656h324v-69h-245v-215h221v-69h-221v-234h248v-69h-327zM281 763q0 11 3 20t9.5 15t15 9t18.5 3q11 0 19.5 -3t15 -9t9.5 -15t3 -20t-3 -20t-9.5 -15t-15 -9t-19.5 -3t-19.5 3t-14.5 9t-9 15t-3 20zM125 763q0 11 3 20t9 15t14.5 9t19.5 3t19.5 -3t14.5 -9
t9 -15t3 -20t-3 -20t-9 -15t-14.5 -9t-19.5 -3t-19.5 3t-14.5 9t-9 14.5t-3 20.5z"/>
      <glyph glyph-name="Igrave" unicode="&#xcc;" horiz-adv-x="274"
             d="M0 0zM177 656v-656h-79v656h79zM79 866l99 -145h-66l-119 145h86z"/>
      <glyph glyph-name="Iacute" unicode="&#xcd;" horiz-adv-x="274"
             d="M98 0zM177 656v-656h-79v656h79zM101 721l98 145h87l-119 -145h-66z"/>
      <glyph glyph-name="Icircumflex" unicode="&#xce;" horiz-adv-x="274"
             d="M0 0zM177 656v-656h-79v656h79zM-3 721l103 145h81l99 -145h-76l-60 88h-16l-61 -88h-70z"/>
      <glyph glyph-name="Idieresis" unicode="&#xcf;" horiz-adv-x="274"
             d="M14 0zM177 656v-656h-79v656h79zM170 763q0 11 3 20t9.5 15t15 9t18.5 3q11 0 19.5 -3t15 -9t9.5 -15t3 -20t-3 -20t-9.5 -15t-15 -9t-19.5 -3t-19.5 3t-14.5 9t-9 15t-3 20zM14 763q0 11 3 20t9 15t14.5 9t19.5 3t19.5 -3t14.5 -9t9 -15t3 -20t-3 -20t-9 -15t-14.5 -9
t-19.5 -3t-19.5 3t-14.5 9t-9 14.5t-3 20.5z"/>
      <glyph glyph-name="Eth" unicode="&#xd0;" horiz-adv-x="654"
             d="M277 0h-179v309h-66v63h66v284h174q78 0 139 -19.5t103.5 -58.5t64.5 -97.5t22 -134.5q0 -85 -23 -150t-65.5 -108.5t-102 -65.5t-133.5 -22zM177 588v-216h124v-63h-124v-241h101q55 0 99 16.5t75.5 50t48.5 85t17 121.5q0 62 -17 108.5t-49.5 77.5t-79.5 46t-106 15
h-89z"/>
      <glyph glyph-name="Ntilde" unicode="&#xd1;" horiz-adv-x="654"
             d="M98 0zM434 0l-258 574h-4v-574h-74v656h122l258 -574h5v574h74v-656h-123zM459 816l23 -46q-9 -13 -18 -23t-20 -17.5t-24.5 -11t-29.5 -3.5t-32 7.5t-38.5 22.5t-34.5 21.5t-23 6.5q-8 0 -16.5 -2.5t-17 -7t-17 -12t-15.5 -16.5l-23 46q9 13 20.5 23.5t24 18t26 11.5
t27.5 4q18 0 34.5 -7.5t38.5 -22.5t33 -21.5t22 -6.5q8 0 16 2.5t15.5 7t15 11t13.5 15.5z"/>
      <glyph glyph-name="Ograve" unicode="&#xd2;" horiz-adv-x="667"
             d="M53 0zM53 323q0 80 22 144t61.5 108.5t92 67t113.5 22.5q58 0 107.5 -21t86.5 -63t57 -104.5t20 -143.5q0 -80 -21.5 -144t-61 -108.5t-91.5 -67t-113 -22.5q-59 0 -108.5 21t-86.5 63t-57.5 104.5t-20.5 143.5zM136 333q0 -73 15 -125t42 -84.5t62.5 -47t77.5 -14.5
q38 0 73 14.5t63 45.5t45 81.5t17 119.5q0 73 -15 125.5t-42 84.5t-62.5 46.5t-77.5 14.5q-38 0 -73 -14.5t-63 -45.5t-45 -81.5t-17 -119.5zM274 866l99 -145h-66l-119 145h86z"/>
      <glyph glyph-name="Oacute" unicode="&#xd3;" horiz-adv-x="667"
             d="M53 0zM53 323q0 80 22 144t61.5 108.5t92 67t113.5 22.5q58 0 107.5 -21t86.5 -63t57 -104.5t20 -143.5q0 -80 -21.5 -144t-61 -108.5t-91.5 -67t-113 -22.5q-59 0 -108.5 21t-86.5 63t-57.5 104.5t-20.5 143.5zM136 333q0 -73 15 -125t42 -84.5t62.5 -47t77.5 -14.5
q38 0 73 14.5t63 45.5t45 81.5t17 119.5q0 73 -15 125.5t-42 84.5t-62.5 46.5t-77.5 14.5q-38 0 -73 -14.5t-63 -45.5t-45 -81.5t-17 -119.5zM297 721l98 145h87l-119 -145h-66z"/>
      <glyph glyph-name="Ocircumflex" unicode="&#xd4;" horiz-adv-x="667"
             d="M53 0zM53 323q0 80 22 144t61.5 108.5t92 67t113.5 22.5q58 0 107.5 -21t86.5 -63t57 -104.5t20 -143.5q0 -80 -21.5 -144t-61 -108.5t-91.5 -67t-113 -22.5q-59 0 -108.5 21t-86.5 63t-57.5 104.5t-20.5 143.5zM136 333q0 -73 15 -125t42 -84.5t62.5 -47t77.5 -14.5
q38 0 73 14.5t63 45.5t45 81.5t17 119.5q0 73 -15 125.5t-42 84.5t-62.5 46.5t-77.5 14.5q-38 0 -73 -14.5t-63 -45.5t-45 -81.5t-17 -119.5zM192 721l103 145h81l99 -145h-76l-60 88h-16l-61 -88h-70z"/>
      <glyph glyph-name="Otilde" unicode="&#xd5;" horiz-adv-x="667"
             d="M53 0zM53 323q0 80 22 144t61.5 108.5t92 67t113.5 22.5q58 0 107.5 -21t86.5 -63t57 -104.5t20 -143.5q0 -80 -21.5 -144t-61 -108.5t-91.5 -67t-113 -22.5q-59 0 -108.5 21t-86.5 63t-57.5 104.5t-20.5 143.5zM136 333q0 -73 15 -125t42 -84.5t62.5 -47t77.5 -14.5
q38 0 73 14.5t63 45.5t45 81.5t17 119.5q0 73 -15 125.5t-42 84.5t-62.5 46.5t-77.5 14.5q-38 0 -73 -14.5t-63 -45.5t-45 -81.5t-17 -119.5zM465 816l23 -46q-9 -13 -18 -23t-20 -17.5t-24.5 -11t-29.5 -3.5t-32 7.5t-38.5 22.5t-34.5 21.5t-23 6.5q-8 0 -16.5 -2.5t-17 -7
t-17 -12t-15.5 -16.5l-23 46q9 13 20.5 23.5t24 18t26 11.5t27.5 4q18 0 34.5 -7.5t38.5 -22.5t33 -21.5t22 -6.5q8 0 16 2.5t15.5 7t15 11t13.5 15.5z"/>
      <glyph glyph-name="Odieresis" unicode="&#xd6;" horiz-adv-x="667"
             d="M53 0zM53 323q0 80 22 144t61.5 108.5t92 67t113.5 22.5q58 0 107.5 -21t86.5 -63t57 -104.5t20 -143.5q0 -80 -21.5 -144t-61 -108.5t-91.5 -67t-113 -22.5q-59 0 -108.5 21t-86.5 63t-57.5 104.5t-20.5 143.5zM136 333q0 -73 15 -125t42 -84.5t62.5 -47t77.5 -14.5
q38 0 73 14.5t63 45.5t45 81.5t17 119.5q0 73 -15 125.5t-42 84.5t-62.5 46.5t-77.5 14.5q-38 0 -73 -14.5t-63 -45.5t-45 -81.5t-17 -119.5zM365 763q0 11 3 20t9.5 15t15 9t18.5 3q11 0 19.5 -3t15 -9t9.5 -15t3 -20t-3 -20t-9.5 -15t-15 -9t-19.5 -3t-19.5 3t-14.5 9
t-9 15t-3 20zM209 763q0 11 3 20t9 15t14.5 9t19.5 3t19.5 -3t14.5 -9t9 -15t3 -20t-3 -20t-9 -15t-14.5 -9t-19.5 -3t-19.5 3t-14.5 9t-9 14.5t-3 20.5z"/>
      <glyph glyph-name="multiply" unicode="&#xd7;"
             d="M131 115l-47 47l134 134l-134 134l47 47l134 -134l134 134l48 -47l-135 -134l134 -133l-47 -47l-134 133z"/>
      <glyph glyph-name="Oslash" unicode="&#xd8;" horiz-adv-x="667"
             d="M136 333q0 -36 3.5 -67t10.5 -57t16.5 -47t22.5 -37l252 440q-11 8 -23.5 14t-26 9.5t-27.5 5t-30 1.5q-37 0 -72.5 -14.5t-63.5 -46t-45 -82t-17 -119.5zM531 323q0 35 -3.5 65t-9.5 55t-15 45.5t-21 37.5l-252 -438q11 -7 23 -12t25 -8.5t26.5 -5t28.5 -1.5
q37 0 72.5 14.5t63.5 46t45 82t17 119.5zM53 323q0 80 22 144t61.5 108.5t92 67t113.5 22.5q19 0 37 -2.5t35 -7t33 -11t31 -15.5l39 66l48 -27l-42 -73q21 -21 38 -48t28.5 -60t17.5 -71.5t6 -82.5q0 -80 -21.5 -144t-61 -108.5t-91.5 -67t-113 -22.5q-18 0 -36 2t-34.5 6
t-32 10.5t-29.5 14.5l-37 -63l-48 27l39 69q-22 20 -39.5 47t-30 60.5t-19 73t-6.5 85.5z"/>
      <glyph glyph-name="Ugrave" unicode="&#xd9;" horiz-adv-x="649"
             d="M92 0zM319 -7q-56 0 -98 14.5t-71 43.5t-43.5 72.5t-14.5 101.5v431h79v-421q0 -46 9 -78t28 -52.5t48 -30.5t70 -10q37 0 65.5 10.5t48 31.5t29.5 52t10 71v427h77v-424q0 -57 -16.5 -101.5t-47.5 -75t-75 -46.5t-98 -16zM265 866l99 -145h-66l-119 145h86z"/>
      <glyph glyph-name="Uacute" unicode="&#xda;" horiz-adv-x="649"
             d="M92 0zM319 -7q-56 0 -98 14.5t-71 43.5t-43.5 72.5t-14.5 101.5v431h79v-421q0 -46 9 -78t28 -52.5t48 -30.5t70 -10q37 0 65.5 10.5t48 31.5t29.5 52t10 71v427h77v-424q0 -57 -16.5 -101.5t-47.5 -75t-75 -46.5t-98 -16zM288 721l98 145h87l-119 -145h-66z"/>
      <glyph glyph-name="Ucircumflex" unicode="&#xdb;" horiz-adv-x="649"
             d="M92 0zM319 -7q-56 0 -98 14.5t-71 43.5t-43.5 72.5t-14.5 101.5v431h79v-421q0 -46 9 -78t28 -52.5t48 -30.5t70 -10q37 0 65.5 10.5t48 31.5t29.5 52t10 71v427h77v-424q0 -57 -16.5 -101.5t-47.5 -75t-75 -46.5t-98 -16zM183 721l103 145h81l99 -145h-76l-60 88h-16
l-61 -88h-70z"/>
      <glyph glyph-name="Udieresis" unicode="&#xdc;" horiz-adv-x="649"
             d="M92 0zM319 -7q-56 0 -98 14.5t-71 43.5t-43.5 72.5t-14.5 101.5v431h79v-421q0 -46 9 -78t28 -52.5t48 -30.5t70 -10q37 0 65.5 10.5t48 31.5t29.5 52t10 71v427h77v-424q0 -57 -16.5 -101.5t-47.5 -75t-75 -46.5t-98 -16zM356 763q0 11 3 20t9.5 15t15 9t18.5 3
q11 0 19.5 -3t15 -9t9.5 -15t3 -20t-3 -20t-9.5 -15t-15 -9t-19.5 -3t-19.5 3t-14.5 9t-9 15t-3 20zM200 763q0 11 3 20t9 15t14.5 9t19.5 3t19.5 -3t14.5 -9t9 -15t3 -20t-3 -20t-9 -15t-14.5 -9t-19.5 -3t-19.5 3t-14.5 9t-9 14.5t-3 20.5z"/>
      <glyph glyph-name="Yacute" unicode="&#xdd;" horiz-adv-x="543"
             d="M17 0zM311 270v-270h-79v270l-215 386h95l164 -306h3l163 306h84zM235 721l98 145h87l-119 -145h-66z"/>
      <glyph glyph-name="Thorn" unicode="&#xde;" horiz-adv-x="537"
             d="M177 476v-269q11 -1 19 -2t15.5 -1.5t15.5 -0.5h19q41 0 72 9.5t52 27.5t31.5 44.5t10.5 60.5q0 33 -9.5 57.5t-28 41t-46.5 24.5t-65 8h-86zM177 656v-113h95q53 0 94.5 -13.5t70 -38t43 -59.5t14.5 -78q0 -53 -16.5 -94t-48 -69t-76.5 -42t-103 -14h-18.5t-17 0.5
t-17.5 1.5t-20 2v-139h-79v656h79z"/>
      <glyph glyph-name="germandbls" unicode="&#xdf;" horiz-adv-x="556"
             d="M230 10v70q17 -5 32.5 -8.5t29.5 -5.5t28 -3t30 -1q23 0 40.5 5t29.5 14t18 22t6 30q0 12 -3 22t-10.5 19t-20 18t-31.5 18l-43 21q-20 10 -34.5 21t-24 25t-14 30.5t-4.5 37.5q0 30 14 51.5t41.5 48.5t41.5 48t14 50q0 21 -7 38t-21 29t-34.5 18.5t-46.5 6.5
q-24 0 -41 -5.5t-28 -17t-16.5 -27.5t-5.5 -38v-547h-75v546q0 34 10.5 62.5t31.5 49t53 32t74 11.5q41 0 74.5 -10.5t57 -30.5t36 -48t12.5 -62q0 -37 -15.5 -64.5t-48 -59t-41.5 -41.5t-9 -28q0 -11 2.5 -19.5t8 -15.5t15 -14t24.5 -14l44 -21q24 -11 41.5 -25.5t29 -30.5
t17 -33.5t5.5 -36.5q0 -35 -13 -63.5t-36 -48.5t-54 -30.5t-67 -10.5q-17 0 -31.5 1t-28 2.5t-27.5 4.5t-30 8z"/>
      <glyph glyph-name="agrave" unicode="&#xe0;" horiz-adv-x="485"
             d="M44 0zM124 132q0 -16 5.5 -29.5t16.5 -23t27.5 -14.5t38.5 -5q18 0 34.5 2t32 6.5t30.5 11t30 15.5v115q-1 0 -16.5 0.5t-24.5 1t-17.5 0.5h-17.5q-37 0 -64 -6t-43.5 -17t-24 -25.5t-7.5 -31.5zM412 338v-338h-71v34q-18 -11 -34.5 -18.5t-33.5 -12.5t-35.5 -7t-41.5 -2
q-35 0 -63 9.5t-48 27t-30.5 42t-10.5 53.5q0 32 14 58.5t41.5 46.5t69 31t96.5 11h20.5h15.5t17.5 -0.5t20.5 -0.5v53q0 24 -7 43t-20.5 31.5t-35 19t-49.5 6.5q-17 0 -34.5 -2t-35 -6t-36 -10t-37.5 -14l-16 64q23 10 43.5 17.5t40.5 12t41 6.5t45 2q42 0 74.5 -10.5
t54.5 -30.5t33.5 -49.5t11.5 -66.5zM180 697l99 -145h-66l-119 145h86z"/>
      <glyph glyph-name="aacute" unicode="&#xe1;" horiz-adv-x="485"
             d="M44 0zM124 132q0 -16 5.5 -29.5t16.5 -23t27.5 -14.5t38.5 -5q18 0 34.5 2t32 6.5t30.5 11t30 15.5v115q-1 0 -16.5 0.5t-24.5 1t-17.5 0.5h-17.5q-37 0 -64 -6t-43.5 -17t-24 -25.5t-7.5 -31.5zM412 338v-338h-71v34q-18 -11 -34.5 -18.5t-33.5 -12.5t-35.5 -7t-41.5 -2
q-35 0 -63 9.5t-48 27t-30.5 42t-10.5 53.5q0 32 14 58.5t41.5 46.5t69 31t96.5 11h20.5h15.5t17.5 -0.5t20.5 -0.5v53q0 24 -7 43t-20.5 31.5t-35 19t-49.5 6.5q-17 0 -34.5 -2t-35 -6t-36 -10t-37.5 -14l-16 64q23 10 43.5 17.5t40.5 12t41 6.5t45 2q42 0 74.5 -10.5
t54.5 -30.5t33.5 -49.5t11.5 -66.5zM202 552l98 145h87l-119 -145h-66z"/>
      <glyph glyph-name="acircumflex" unicode="&#xe2;" horiz-adv-x="485"
             d="M44 0zM124 132q0 -16 5.5 -29.5t16.5 -23t27.5 -14.5t38.5 -5q18 0 34.5 2t32 6.5t30.5 11t30 15.5v115q-1 0 -16.5 0.5t-24.5 1t-17.5 0.5h-17.5q-37 0 -64 -6t-43.5 -17t-24 -25.5t-7.5 -31.5zM412 338v-338h-71v34q-18 -11 -34.5 -18.5t-33.5 -12.5t-35.5 -7t-41.5 -2
q-35 0 -63 9.5t-48 27t-30.5 42t-10.5 53.5q0 32 14 58.5t41.5 46.5t69 31t96.5 11h20.5h15.5t17.5 -0.5t20.5 -0.5v53q0 24 -7 43t-20.5 31.5t-35 19t-49.5 6.5q-17 0 -34.5 -2t-35 -6t-36 -10t-37.5 -14l-16 64q23 10 43.5 17.5t40.5 12t41 6.5t45 2q42 0 74.5 -10.5
t54.5 -30.5t33.5 -49.5t11.5 -66.5zM97 552l103 145h81l99 -145h-76l-60 88h-16l-61 -88h-70z"/>
      <glyph glyph-name="atilde" unicode="&#xe3;" horiz-adv-x="485"
             d="M44 0zM124 132q0 -16 5.5 -29.5t16.5 -23t27.5 -14.5t38.5 -5q18 0 34.5 2t32 6.5t30.5 11t30 15.5v115q-1 0 -16.5 0.5t-24.5 1t-17.5 0.5h-17.5q-37 0 -64 -6t-43.5 -17t-24 -25.5t-7.5 -31.5zM412 338v-338h-71v34q-18 -11 -34.5 -18.5t-33.5 -12.5t-35.5 -7t-41.5 -2
q-35 0 -63 9.5t-48 27t-30.5 42t-10.5 53.5q0 32 14 58.5t41.5 46.5t69 31t96.5 11h20.5h15.5t17.5 -0.5t20.5 -0.5v53q0 24 -7 43t-20.5 31.5t-35 19t-49.5 6.5q-17 0 -34.5 -2t-35 -6t-36 -10t-37.5 -14l-16 64q23 10 43.5 17.5t40.5 12t41 6.5t45 2q42 0 74.5 -10.5
t54.5 -30.5t33.5 -49.5t11.5 -66.5zM370 657l23 -46q-9 -13 -18 -23t-20 -17.5t-24.5 -11t-29.5 -3.5t-32 7.5t-38.5 22.5t-34.5 21.5t-23 6.5q-8 0 -16.5 -2.5t-17 -7t-17 -12t-15.5 -16.5l-23 46q9 13 20.5 23.5t24 18t26 11.5t27.5 4q18 0 34.5 -7.5t38.5 -22.5t33 -21.5
t22 -6.5q8 0 16 2.5t15.5 7t15 11t13.5 15.5z"/>
      <glyph glyph-name="adieresis" unicode="&#xe4;" horiz-adv-x="485"
             d="M44 0zM124 132q0 -16 5.5 -29.5t16.5 -23t27.5 -14.5t38.5 -5q18 0 34.5 2t32 6.5t30.5 11t30 15.5v115q-1 0 -16.5 0.5t-24.5 1t-17.5 0.5h-17.5q-37 0 -64 -6t-43.5 -17t-24 -25.5t-7.5 -31.5zM412 338v-338h-71v34q-18 -11 -34.5 -18.5t-33.5 -12.5t-35.5 -7t-41.5 -2
q-35 0 -63 9.5t-48 27t-30.5 42t-10.5 53.5q0 32 14 58.5t41.5 46.5t69 31t96.5 11h20.5h15.5t17.5 -0.5t20.5 -0.5v53q0 24 -7 43t-20.5 31.5t-35 19t-49.5 6.5q-17 0 -34.5 -2t-35 -6t-36 -10t-37.5 -14l-16 64q23 10 43.5 17.5t40.5 12t41 6.5t45 2q42 0 74.5 -10.5
t54.5 -30.5t33.5 -49.5t11.5 -66.5zM261 612q0 11 3 20t9.5 15t15 9t18.5 3q11 0 19.5 -3t15 -9t9.5 -15t3 -20t-3 -20t-9.5 -15t-15 -9t-19.5 -3t-19.5 3t-14.5 9t-9 15t-3 20zM105 612q0 11 3 20t9 15t14.5 9t19.5 3t19.5 -3t14.5 -9t9 -15t3 -20t-3 -20t-9 -15t-14.5 -9
t-19.5 -3t-19.5 3t-14.5 9t-9 14.5t-3 20.5z"/>
      <glyph glyph-name="aring" unicode="&#xe5;" horiz-adv-x="485"
             d="M44 0zM124 132q0 -16 5.5 -29.5t16.5 -23t27.5 -14.5t38.5 -5q18 0 34.5 2t32 6.5t30.5 11t30 15.5v115q-1 0 -16.5 0.5t-24.5 1t-17.5 0.5h-17.5q-37 0 -64 -6t-43.5 -17t-24 -25.5t-7.5 -31.5zM412 338v-338h-71v34q-18 -11 -34.5 -18.5t-33.5 -12.5t-35.5 -7t-41.5 -2
q-35 0 -63 9.5t-48 27t-30.5 42t-10.5 53.5q0 32 14 58.5t41.5 46.5t69 31t96.5 11h20.5h15.5t17.5 -0.5t20.5 -0.5v53q0 24 -7 43t-20.5 31.5t-35 19t-49.5 6.5q-17 0 -34.5 -2t-35 -6t-36 -10t-37.5 -14l-16 64q23 10 43.5 17.5t40.5 12t41 6.5t45 2q42 0 74.5 -10.5
t54.5 -30.5t33.5 -49.5t11.5 -66.5zM155 634q0 17 6.5 32t18 26t27 17.5t32.5 6.5t32 -6t26.5 -17.5t18 -26.5t6.5 -32t-6.5 -32.5t-18 -27t-26.5 -18t-32 -6.5t-32.5 6.5t-27 18t-18 27t-6.5 32.5zM198 634q0 -9 3 -17t9 -13.5t13.5 -9t15.5 -3.5t15 3.5t13 9t9 13.5t3 17
q0 8 -3 15.5t-9 13.5t-13 9.5t-15 3.5t-15.5 -3.5t-13.5 -9.5t-9 -13.5t-3 -15.5z"/>
      <glyph glyph-name="ae" unicode="&#xe6;" horiz-adv-x="769"
             d="M414 303h230q0 32 -7 57t-21 41.5t-34.5 24.5t-46.5 8q-23 0 -43 -9t-36.5 -26t-27 -41.5t-14.5 -54.5zM238 495q27 0 50.5 -4.5t42.5 -13t33.5 -21.5t24.5 -30q14 18 30.5 31.5t36 22.5t40.5 13.5t43 4.5q44 0 78.5 -12.5t58.5 -37.5t36.5 -61.5t12.5 -84.5v-14.5
t-0.5 -14.5t-1 -14.5t-0.5 -16.5h-312q0 -46 11.5 -80t32.5 -56t49.5 -32.5t63.5 -10.5q21 0 39.5 2t36.5 5.5t36 9.5t37 14v-68q-20 -8 -38 -14t-36.5 -10t-38.5 -6t-44 -2q-28 0 -52.5 4t-45.5 12.5t-39 21.5t-34 30q-19 -16 -39 -28.5t-42.5 -21.5t-48.5 -13.5t-55 -4.5
q-38 0 -68 9.5t-50.5 26.5t-31 41.5t-10.5 54.5q0 32 14 59t42 46.5t69.5 30.5t95.5 11h17.5h16.5t19 -0.5t21 -0.5v53q0 24 -7 43t-20.5 31.5t-35 19t-49.5 6.5q-18 0 -35.5 -2t-34.5 -6t-34.5 -10t-38.5 -15l-16 65q23 10 43.5 17.5t40.5 12t41 6.5t45 2zM124 132
q0 -16 5.5 -29.5t17.5 -23t30 -14.5t43 -5q21 0 40.5 3t37.5 9t34 15t30 20q-5 11 -9 22t-7 24t-5 26.5t-3 28.5q-11 1 -21.5 1.5t-20 1t-18 0.5h-15.5q-38 0 -65 -6.5t-43 -17t-23.5 -24.5t-7.5 -31z"/>
      <glyph glyph-name="ccedilla" unicode="&#xe7;" horiz-adv-x="408"
             d="M50 0zM380 483l-9 -68q-15 3 -27 5.5t-22.5 4t-22 2t-24.5 0.5q-30 0 -56.5 -12t-46.5 -35.5t-31.5 -57t-11.5 -75.5q0 -48 11.5 -83t32 -57.5t48 -33t59.5 -10.5q14 0 27 1t25.5 2.5t24.5 4.5l24 6v-68q-13 -4 -25.5 -6.5t-25.5 -4.5t-27.5 -3t-31.5 -1q-49 0 -89 14.5
t-69.5 45.5t-46 78.5t-16.5 111.5q0 59 18.5 106t50 80t72.5 49.5t86 16.5q15 0 27.5 -0.5t24.5 -2t24.5 -4t26.5 -6.5zM203 -32l57 -4q20 -1 36 -6t26.5 -13.5t15.5 -19.5t5 -25q0 -20 -8.5 -36.5t-26 -29t-43.5 -19t-59 -6.5h-45v52h46q18 0 31 2t21.5 6t12.5 9.5t4 11.5
q0 5 -3 10t-9.5 9t-17 7t-24.5 4l-19 2v46z"/>
      <glyph glyph-name="egrave" unicode="&#xe8;" horiz-adv-x="484"
             d="M50 0zM50 244q0 61 15.5 109t43.5 80t65.5 48.5t79.5 16.5q44 0 78.5 -12.5t58.5 -37.5t36.5 -61.5t12.5 -84.5v-16.5v-14t-0.5 -15t-1.5 -14.5h-312q0 -46 11.5 -80t32.5 -56t49.5 -32.5t63.5 -10.5q21 0 40 2t37 5.5t36 9.5t36 14v-68q-20 -9 -38 -14.5t-36.5 -9.5
t-39 -6t-44.5 -2q-51 0 -92.5 15t-71 45.5t-45 78t-15.5 111.5zM129 303h230q0 32 -7 57t-21 41.5t-34.5 24.5t-46.5 8q-23 0 -43 -9t-36.5 -26t-27 -41.5t-14.5 -54.5zM196 697l99 -145h-66l-119 145h86z"/>
      <glyph glyph-name="eacute" unicode="&#xe9;" horiz-adv-x="484"
             d="M50 0zM50 244q0 61 15.5 109t43.5 80t65.5 48.5t79.5 16.5q44 0 78.5 -12.5t58.5 -37.5t36.5 -61.5t12.5 -84.5v-16.5v-14t-0.5 -15t-1.5 -14.5h-312q0 -46 11.5 -80t32.5 -56t49.5 -32.5t63.5 -10.5q21 0 40 2t37 5.5t36 9.5t36 14v-68q-20 -9 -38 -14.5t-36.5 -9.5
t-39 -6t-44.5 -2q-51 0 -92.5 15t-71 45.5t-45 78t-15.5 111.5zM129 303h230q0 32 -7 57t-21 41.5t-34.5 24.5t-46.5 8q-23 0 -43 -9t-36.5 -26t-27 -41.5t-14.5 -54.5zM217 552l98 145h87l-119 -145h-66z"/>
      <glyph glyph-name="ecircumflex" unicode="&#xea;" horiz-adv-x="484"
             d="M50 0zM50 244q0 61 15.5 109t43.5 80t65.5 48.5t79.5 16.5q44 0 78.5 -12.5t58.5 -37.5t36.5 -61.5t12.5 -84.5v-16.5v-14t-0.5 -15t-1.5 -14.5h-312q0 -46 11.5 -80t32.5 -56t49.5 -32.5t63.5 -10.5q21 0 40 2t37 5.5t36 9.5t36 14v-68q-20 -9 -38 -14.5t-36.5 -9.5
t-39 -6t-44.5 -2q-51 0 -92.5 15t-71 45.5t-45 78t-15.5 111.5zM129 303h230q0 32 -7 57t-21 41.5t-34.5 24.5t-46.5 8q-23 0 -43 -9t-36.5 -26t-27 -41.5t-14.5 -54.5zM113 552l103 145h81l99 -145h-76l-60 88h-16l-61 -88h-70z"/>
      <glyph glyph-name="edieresis" unicode="&#xeb;" horiz-adv-x="484"
             d="M50 0zM50 244q0 61 15.5 109t43.5 80t65.5 48.5t79.5 16.5q44 0 78.5 -12.5t58.5 -37.5t36.5 -61.5t12.5 -84.5v-16.5v-14t-0.5 -15t-1.5 -14.5h-312q0 -46 11.5 -80t32.5 -56t49.5 -32.5t63.5 -10.5q21 0 40 2t37 5.5t36 9.5t36 14v-68q-20 -9 -38 -14.5t-36.5 -9.5
t-39 -6t-44.5 -2q-51 0 -92.5 15t-71 45.5t-45 78t-15.5 111.5zM129 303h230q0 32 -7 57t-21 41.5t-34.5 24.5t-46.5 8q-23 0 -43 -9t-36.5 -26t-27 -41.5t-14.5 -54.5zM285 612q0 11 3 20t9.5 15t15 9t18.5 3q11 0 19.5 -3t15 -9t9.5 -15t3 -20t-3 -20t-9.5 -15t-15 -9
t-19.5 -3t-19.5 3t-14.5 9t-9 15t-3 20zM129 612q0 11 3 20t9 15t14.5 9t19.5 3t19.5 -3t14.5 -9t9 -15t3 -20t-3 -20t-9 -15t-14.5 -9t-19.5 -3t-19.5 3t-14.5 9t-9 14.5t-3 20.5z"/>
      <glyph glyph-name="igrave" unicode="&#xec;" horiz-adv-x="236"
             d="M0 0zM156 492v-492h-76v486zM60 697l99 -145h-66l-119 145h86z"/>
      <glyph glyph-name="iacute" unicode="&#xed;" horiz-adv-x="236"
             d="M80 0zM156 492v-492h-76v486zM82 552l98 145h87l-119 -145h-66z"/>
      <glyph glyph-name="icircumflex" unicode="&#xee;" horiz-adv-x="236"
             d="M0 0zM156 492v-492h-76v486zM-22 552l103 145h81l99 -145h-76l-60 88h-16l-61 -88h-70z"/>
      <glyph glyph-name="idieresis" unicode="&#xef;" horiz-adv-x="236"
             d="M0 0zM156 492v-492h-76v486zM151 612q0 11 3 20t9.5 15t15 9t18.5 3q11 0 19.5 -3t15 -9t9.5 -15t3 -20t-3 -20t-9.5 -15t-15 -9t-19.5 -3t-19.5 3t-14.5 9t-9 15t-3 20zM-5 612q0 11 3 20t9 15t14.5 9t19.5 3t19.5 -3t14.5 -9t9 -15t3 -20t-3 -20t-9 -15t-14.5 -9
t-19.5 -3t-19.5 3t-14.5 9t-9 14.5t-3 20.5z"/>
      <glyph glyph-name="eth" unicode="&#xf0;" horiz-adv-x="533"
             d="M257 -9q-47 0 -85 15.5t-65.5 47t-42 78t-14.5 106.5t18 108.5t49.5 82.5t71 51.5t82.5 17.5q16 0 31.5 -3t30 -8.5t27 -14t23.5 -19.5l4 2q-5 23 -12.5 43.5t-17.5 38t-21.5 31.5t-25.5 25l-56 -54l-34 36l46 45q-8 4 -16 7t-15.5 4.5t-16.5 2.5t-19 1q-15 0 -28 -1
t-25.5 -2.5t-26 -4.5t-28.5 -7v66q15 4 29 7t28.5 4.5t29 2.5t30.5 1q17 0 31 -1.5t27 -4.5t25.5 -8.5t25.5 -13.5l53 51l38 -40l-45 -43q26 -22 47 -53t35.5 -71.5t22.5 -91.5t8 -113q0 -83 -16 -144t-45.5 -100t-69.5 -58t-88 -19zM129 242q0 -46 10 -81t28 -57.5t43 -34
t55 -11.5q28 0 52.5 13t43.5 38t29.5 62t10.5 84q0 19 -0.5 34t-1 29.5t-2 29.5t-4.5 31q-13 13 -26.5 23t-29 16.5t-34 10t-39.5 3.5q-29 0 -53.5 -13t-43 -38t-28.5 -60.5t-10 -78.5z"/>
      <glyph glyph-name="ntilde" unicode="&#xf1;"
             d="M80 0zM382 0v321q0 24 -7 43t-21 32.5t-34.5 21t-46.5 7.5q-17 0 -31 -1.5t-28 -4.5t-28 -7.5t-30 -11.5v-400h-76v486l73 6v-33q17 10 33 16.5t31.5 11t32.5 6.5t37 2q41 0 73 -11t54 -32t33 -52t11 -71v-329h-76zM400 657l23 -46q-9 -13 -18 -23t-20 -17.5t-24.5 -11
t-29.5 -3.5t-32 7.5t-38.5 22.5t-34.5 21.5t-23 6.5q-8 0 -16.5 -2.5t-17 -7t-17 -12t-15.5 -16.5l-23 46q9 13 20.5 23.5t24 18t26 11.5t27.5 4q18 0 34.5 -7.5t38.5 -22.5t33 -21.5t22 -6.5q8 0 16 2.5t15.5 7t15 11t13.5 15.5z"/>
      <glyph glyph-name="ograve" unicode="&#xf2;" horiz-adv-x="542"
             d="M50 0zM492 250q0 -59 -18 -107.5t-49.5 -82.5t-73 -51.5t-87.5 -17.5q-49 0 -88.5 15.5t-67.5 47t-43 78t-15 106.5q0 59 18 108t49.5 82.5t72.5 51.5t87 18q49 0 89 -16t68 -47t43 -77.5t15 -107.5zM413 247q0 45 -9.5 79.5t-28 57.5t-45 34.5t-60.5 11.5
q-31 0 -57 -12.5t-45 -37t-29 -59.5t-10 -79q0 -45 9.5 -79.5t28 -57.5t45 -34.5t60.5 -11.5q31 0 57 13t45 37.5t29 59.5t10 78zM212 697l99 -145h-66l-119 145h86z"/>
      <glyph glyph-name="oacute" unicode="&#xf3;" horiz-adv-x="542"
             d="M50 0zM492 250q0 -59 -18 -107.5t-49.5 -82.5t-73 -51.5t-87.5 -17.5q-49 0 -88.5 15.5t-67.5 47t-43 78t-15 106.5q0 59 18 108t49.5 82.5t72.5 51.5t87 18q49 0 89 -16t68 -47t43 -77.5t15 -107.5zM413 247q0 45 -9.5 79.5t-28 57.5t-45 34.5t-60.5 11.5
q-31 0 -57 -12.5t-45 -37t-29 -59.5t-10 -79q0 -45 9.5 -79.5t28 -57.5t45 -34.5t60.5 -11.5q31 0 57 13t45 37.5t29 59.5t10 78zM235 552l98 145h87l-119 -145h-66z"/>
      <glyph glyph-name="ocircumflex" unicode="&#xf4;" horiz-adv-x="542"
             d="M50 0zM492 250q0 -59 -18 -107.5t-49.5 -82.5t-73 -51.5t-87.5 -17.5q-49 0 -88.5 15.5t-67.5 47t-43 78t-15 106.5q0 59 18 108t49.5 82.5t72.5 51.5t87 18q49 0 89 -16t68 -47t43 -77.5t15 -107.5zM413 247q0 45 -9.5 79.5t-28 57.5t-45 34.5t-60.5 11.5
q-31 0 -57 -12.5t-45 -37t-29 -59.5t-10 -79q0 -45 9.5 -79.5t28 -57.5t45 -34.5t60.5 -11.5q31 0 57 13t45 37.5t29 59.5t10 78zM130 552l103 145h81l99 -145h-76l-60 88h-16l-61 -88h-70z"/>
      <glyph glyph-name="otilde" unicode="&#xf5;" horiz-adv-x="542"
             d="M50 0zM492 250q0 -59 -18 -107.5t-49.5 -82.5t-73 -51.5t-87.5 -17.5q-49 0 -88.5 15.5t-67.5 47t-43 78t-15 106.5q0 59 18 108t49.5 82.5t72.5 51.5t87 18q49 0 89 -16t68 -47t43 -77.5t15 -107.5zM413 247q0 45 -9.5 79.5t-28 57.5t-45 34.5t-60.5 11.5
q-31 0 -57 -12.5t-45 -37t-29 -59.5t-10 -79q0 -45 9.5 -79.5t28 -57.5t45 -34.5t60.5 -11.5q31 0 57 13t45 37.5t29 59.5t10 78zM402 657l23 -46q-9 -13 -18 -23t-20 -17.5t-24.5 -11t-29.5 -3.5t-32 7.5t-38.5 22.5t-34.5 21.5t-23 6.5q-8 0 -16.5 -2.5t-17 -7t-17 -12
t-15.5 -16.5l-23 46q9 13 20.5 23.5t24 18t26 11.5t27.5 4q18 0 34.5 -7.5t38.5 -22.5t33 -21.5t22 -6.5q8 0 16 2.5t15.5 7t15 11t13.5 15.5z"/>
      <glyph glyph-name="odieresis" unicode="&#xf6;" horiz-adv-x="542"
             d="M50 0zM492 250q0 -59 -18 -107.5t-49.5 -82.5t-73 -51.5t-87.5 -17.5q-49 0 -88.5 15.5t-67.5 47t-43 78t-15 106.5q0 59 18 108t49.5 82.5t72.5 51.5t87 18q49 0 89 -16t68 -47t43 -77.5t15 -107.5zM413 247q0 45 -9.5 79.5t-28 57.5t-45 34.5t-60.5 11.5
q-31 0 -57 -12.5t-45 -37t-29 -59.5t-10 -79q0 -45 9.5 -79.5t28 -57.5t45 -34.5t60.5 -11.5q31 0 57 13t45 37.5t29 59.5t10 78zM303 612q0 11 3 20t9.5 15t15 9t18.5 3q11 0 19.5 -3t15 -9t9.5 -15t3 -20t-3 -20t-9.5 -15t-15 -9t-19.5 -3t-19.5 3t-14.5 9t-9 15t-3 20z
M147 612q0 11 3 20t9 15t14.5 9t19.5 3t19.5 -3t14.5 -9t9 -15t3 -20t-3 -20t-9 -15t-14.5 -9t-19.5 -3t-19.5 3t-14.5 9t-9 14.5t-3 20.5z"/>
      <glyph glyph-name="divide" unicode="&#xf7;"
             d="M219 451q0 11 3 19.5t9 14.5t14.5 9t19.5 3t19.5 -3t14.5 -9t9 -14.5t3 -19.5t-3 -19.5t-9 -14.5t-14.5 -9t-19.5 -3t-19.5 3t-14.5 9t-9 14.5t-3 19.5zM68 263v67h394v-67h-394zM219 142q0 11 3 19.5t9 14.5t14.5 9t19.5 3t19.5 -3t14.5 -9t9 -14.5t3 -19.5t-3 -19.5
t-9 -14.5t-14.5 -9t-19.5 -3t-19.5 3t-14.5 9t-9 14.5t-3 19.5z"/>
      <glyph glyph-name="oslash" unicode="&#xf8;" horiz-adv-x="542"
             d="M128 242q0 -21 2 -40.5t6 -36t10 -30.5t13 -26l179 309q-7 3 -15 6t-16.5 4.5t-17.5 2.5t-19 1q-31 0 -57.5 -13t-45.5 -38t-29 -60t-10 -79zM414 247q0 22 -2.5 42t-7 38t-11 33t-15.5 27l-181 -313q8 -4 17 -7t18.5 -5.5t19.5 -3.5t20 -1q31 0 57 13t45 38t29.5 60.5
t10.5 78.5zM492 250q0 -59 -18 -107.5t-49.5 -82.5t-73 -51.5t-87.5 -17.5q-14 0 -27.5 1.5t-26 4t-24.5 6.5t-23 9l-35 -61l-46 27l37 64q-17 16 -29.5 36t-21.5 44.5t-13.5 53.5t-4.5 62q0 59 18 108t49.5 82.5t72.5 51.5t87 18q13 0 25.5 -1t24.5 -3.5t23.5 -6t21.5 -7.5
l34 59l46 -27l-35 -60q18 -16 32 -36.5t23.5 -45.5t14.5 -55t5 -65z"/>
      <glyph glyph-name="ugrave" unicode="&#xf9;" horiz-adv-x="527"
             d="M73 0zM149 492v-323q0 -25 7 -45t20.5 -33t33.5 -20t46 -7q18 0 32 1.5t26.5 4.5t25.5 7.5t31 11.5v397l76 6v-492h-74v30q-16 -10 -31 -16.5t-30.5 -11t-32.5 -7t-36 -2.5q-42 0 -73.5 10.5t-53 32t-32.5 52.5t-11 72v326zM201 697l99 -145h-66l-119 145h86z"/>
      <glyph glyph-name="uacute" unicode="&#xfa;" horiz-adv-x="527"
             d="M73 0zM149 492v-323q0 -25 7 -45t20.5 -33t33.5 -20t46 -7q18 0 32 1.5t26.5 4.5t25.5 7.5t31 11.5v397l76 6v-492h-74v30q-16 -10 -31 -16.5t-30.5 -11t-32.5 -7t-36 -2.5q-42 0 -73.5 10.5t-53 32t-32.5 52.5t-11 72v326zM224 552l98 145h87l-119 -145h-66z"/>
      <glyph glyph-name="ucircumflex" unicode="&#xfb;" horiz-adv-x="527"
             d="M73 0zM149 492v-323q0 -25 7 -45t20.5 -33t33.5 -20t46 -7q18 0 32 1.5t26.5 4.5t25.5 7.5t31 11.5v397l76 6v-492h-74v30q-16 -10 -31 -16.5t-30.5 -11t-32.5 -7t-36 -2.5q-42 0 -73.5 10.5t-53 32t-32.5 52.5t-11 72v326zM119 552l103 145h81l99 -145h-76l-60 88h-16
l-61 -88h-70z"/>
      <glyph glyph-name="udieresis" unicode="&#xfc;" horiz-adv-x="527"
             d="M73 0zM149 492v-323q0 -25 7 -45t20.5 -33t33.5 -20t46 -7q18 0 32 1.5t26.5 4.5t25.5 7.5t31 11.5v397l76 6v-492h-74v30q-16 -10 -31 -16.5t-30.5 -11t-32.5 -7t-36 -2.5q-42 0 -73.5 10.5t-53 32t-32.5 52.5t-11 72v326zM292 612q0 11 3 20t9.5 15t15 9t18.5 3
q11 0 19.5 -3t15 -9t9.5 -15t3 -20t-3 -20t-9.5 -15t-15 -9t-19.5 -3t-19.5 3t-14.5 9t-9 15t-3 20zM136 612q0 11 3 20t9 15t14.5 9t19.5 3t19.5 -3t14.5 -9t9 -15t3 -20t-3 -20t-9 -15t-14.5 -9t-19.5 -3t-19.5 3t-14.5 9t-9 14.5t-3 20.5z"/>
      <glyph glyph-name="yacute" unicode="&#xfd;" horiz-adv-x="452"
             d="M17 0zM185 19l-168 470h84l136 -404h4l117 404h77l-178 -555q-11 -36 -26.5 -61t-34.5 -40t-41.5 -22t-49.5 -7q-7 0 -14 0.5t-13.5 1t-12.5 1.5t-12 3v64q7 -1 13.5 -2t12 -1.5t11 -0.5h10.5q17 0 30.5 4.5t25 13.5t20 24t16.5 37l24 70h-31zM189 552l98 145h87
l-119 -145h-66z"/>
      <glyph glyph-name="thorn" unicode="&#xfe;" horiz-adv-x="535"
             d="M238 61q36 0 66.5 11.5t53.5 35.5t35.5 60t12.5 84q0 45 -10 78t-28.5 54t-45 31t-60.5 10q-14 0 -27.5 -1.5t-26.5 -4.5t-25.5 -7.5t-26.5 -10.5v-333q11 -2 21 -3.5t20 -2l20 -1t21 -0.5zM156 699v-238q15 8 30 14.5t31.5 11t33 6.5t34.5 2q45 0 82 -14.5t63.5 -43.5
t40.5 -73.5t14 -104.5q0 -62 -18.5 -111.5t-52.5 -84t-81 -52t-104 -17.5h-19t-18 0.5t-18 1.5l-18 2v-189h-76v884z"/>
      <glyph glyph-name="ydieresis" unicode="&#xff;" horiz-adv-x="452"
             d="M17 0zM185 19l-168 470h84l136 -404h4l117 404h77l-178 -555q-11 -36 -26.5 -61t-34.5 -40t-41.5 -22t-49.5 -7q-7 0 -14 0.5t-13.5 1t-12.5 1.5t-12 3v64q7 -1 13.5 -2t12 -1.5t11 -0.5h10.5q17 0 30.5 4.5t25 13.5t20 24t16.5 37l24 70h-31zM258 612q0 11 3 20t9.5 15
t15 9t18.5 3q11 0 19.5 -3t15 -9t9.5 -15t3 -20t-3 -20t-9.5 -15t-15 -9t-19.5 -3t-19.5 3t-14.5 9t-9 15t-3 20zM102 612q0 11 3 20t9 15t14.5 9t19.5 3t19.5 -3t14.5 -9t9 -15t3 -20t-3 -20t-9 -15t-14.5 -9t-19.5 -3t-19.5 3t-14.5 9t-9 14.5t-3 20.5z"/>
      <glyph glyph-name="Amacron" unicode="&#x100;" horiz-adv-x="567"
             d="M17 0zM389 245l-103 350h-9l-105 -350h217zM348 656l201 -656h-88l-53 177h-256l-52 -177h-83l207 656h124zM163 734v57h241v-57h-241z"/>
      <glyph glyph-name="amacron" unicode="&#x101;" horiz-adv-x="485"
             d="M44 0zM124 132q0 -16 5.5 -29.5t16.5 -23t27.5 -14.5t38.5 -5q18 0 34.5 2t32 6.5t30.5 11t30 15.5v115q-1 0 -16.5 0.5t-24.5 1t-17.5 0.5h-17.5q-37 0 -64 -6t-43.5 -17t-24 -25.5t-7.5 -31.5zM412 338v-338h-71v34q-18 -11 -34.5 -18.5t-33.5 -12.5t-35.5 -7t-41.5 -2
q-35 0 -63 9.5t-48 27t-30.5 42t-10.5 53.5q0 32 14 58.5t41.5 46.5t69 31t96.5 11h20.5h15.5t17.5 -0.5t20.5 -0.5v53q0 24 -7 43t-20.5 31.5t-35 19t-49.5 6.5q-17 0 -34.5 -2t-35 -6t-36 -10t-37.5 -14l-16 64q23 10 43.5 17.5t40.5 12t41 6.5t45 2q42 0 74.5 -10.5
t54.5 -30.5t33.5 -49.5t11.5 -66.5zM118 564v57h241v-57h-241z"/>
      <glyph glyph-name="Abreve" unicode="&#x102;" horiz-adv-x="567"
             d="M17 0zM389 245l-103 350h-9l-105 -350h217zM348 656l201 -656h-88l-53 177h-256l-52 -177h-83l207 656h124zM287 721h-8q-29 0 -53 9.5t-41.5 28t-26.5 46t-9 61.5h68q0 -22 5 -39t13.5 -28.5t19.5 -17.5t24 -6h14q12 0 24 6t21 18t14 29t5 38h61q0 -34 -10 -61
t-27.5 -46t-41.5 -28.5t-52 -9.5z"/>
      <glyph glyph-name="abreve" unicode="&#x103;" horiz-adv-x="485"
             d="M44 0zM124 132q0 -16 5.5 -29.5t16.5 -23t27.5 -14.5t38.5 -5q18 0 34.5 2t32 6.5t30.5 11t30 15.5v115q-1 0 -16.5 0.5t-24.5 1t-17.5 0.5h-17.5q-37 0 -64 -6t-43.5 -17t-24 -25.5t-7.5 -31.5zM412 338v-338h-71v34q-18 -11 -34.5 -18.5t-33.5 -12.5t-35.5 -7t-41.5 -2
q-35 0 -63 9.5t-48 27t-30.5 42t-10.5 53.5q0 32 14 58.5t41.5 46.5t69 31t96.5 11h20.5h15.5t17.5 -0.5t20.5 -0.5v53q0 24 -7 43t-20.5 31.5t-35 19t-49.5 6.5q-17 0 -34.5 -2t-35 -6t-36 -10t-37.5 -14l-16 64q23 10 43.5 17.5t40.5 12t41 6.5t45 2q42 0 74.5 -10.5
t54.5 -30.5t33.5 -49.5t11.5 -66.5zM243 551h-8q-29 0 -53 9.5t-41.5 28t-26.5 46t-9 61.5h68q0 -22 5 -39t13.5 -28.5t19.5 -17.5t24 -6h14q12 0 24 6t21 18t14 29t5 38h61q0 -34 -10 -61t-27.5 -46t-41.5 -28.5t-52 -9.5z"/>
      <glyph glyph-name="Aogonek" unicode="&#x104;" horiz-adv-x="567"
             d="M467 0h-6l-53 177h-256l-52 -177h-83l207 656h124l201 -656h-7q-22 -13 -38 -26t-26 -25.5t-15 -24.5t-5 -23q0 -9 2.5 -16t8 -11.5t13.5 -7t18 -2.5q8 0 15.5 0.5t15.5 2t15.5 3t15.5 4.5v-51q-7 -4 -15.5 -6.5t-17.5 -4t-18.5 -2.5t-19.5 -1q-27 0 -47 5.5t-33 15.5
t-19.5 25.5t-6.5 35.5q0 13 5.5 27.5t16 28.5t25.5 27.5t35 25.5zM389 245l-103 350h-9l-105 -350h217z"/>
      <glyph glyph-name="aogonek" unicode="&#x105;" horiz-adv-x="485"
             d="M364 -191q-27 0 -47 5.5t-33 15.5t-19.5 25.5t-6.5 35.5q0 13 5.5 27.5t16 28.5t26 27.5t35.5 25.5v34q-18 -11 -34.5 -18.5t-33.5 -12.5t-35.5 -7t-41.5 -2q-35 0 -63 9.5t-48 27t-30.5 42t-10.5 53.5q0 32 14 58.5t41.5 46.5t69 31t96.5 11h20.5h16t17.5 -0.5t20 -0.5
v53q0 24 -7 43t-20.5 31.5t-35 19t-49.5 6.5q-17 0 -34.5 -2t-35 -6t-36 -10t-37.5 -14l-16 64q23 10 43.5 17.5t40.5 12t41 6.5t45 2q42 0 74.5 -10.5t54.5 -30.5t33.5 -49.5t11.5 -66.5v-338q-22 -14 -37.5 -27.5t-25 -25.5t-14 -23.5t-4.5 -22.5q0 -9 3 -16t8 -11.5
t13 -7t19 -2.5q8 0 15.5 0.5t15 2l15 3t15.5 4.5v-51q-7 -4 -15.5 -6.5t-17.5 -4t-18.5 -2.5t-19.5 -1zM124 132q0 -16 5.5 -29.5t16.5 -23t27.5 -14.5t38.5 -5q18 0 34.5 2t32 6.5t30.5 11t30 15.5v114q-1 0 -16.5 0.5t-24.5 1t-17.5 0.5h-17.5q-37 0 -64 -6t-43.5 -17
t-24 -25t-7.5 -31z"/>
      <glyph glyph-name="Cacute" unicode="&#x106;" horiz-adv-x="526"
             d="M53 0zM499 77v-68q-21 -5 -37 -7.5t-32 -4.5t-34.5 -3t-41.5 -1q-64 0 -119 20.5t-96 61t-63.5 100.5t-22.5 138q0 87 26 153.5t71 110t101.5 64.5t117.5 21q20 0 36 -1t31 -2.5t29.5 -3.5t32.5 -6l-9 -70q-22 4 -36.5 6.5t-27.5 4t-27 2t-33 0.5q-45 0 -86 -16.5
t-73.5 -50t-51 -84t-18.5 -116.5q0 -65 17.5 -114.5t48.5 -82.5t73 -49t90 -16q20 0 35.5 0.5t31 2t32 4.5t35.5 7zM299 721l98 145h87l-119 -145h-66z"/>
      <glyph glyph-name="cacute" unicode="&#x107;" horiz-adv-x="408"
             d="M50 0zM380 483l-9 -68q-15 3 -27 5.5t-22.5 4t-22 2t-24.5 0.5q-30 0 -56.5 -12t-46.5 -35.5t-31.5 -57t-11.5 -75.5q0 -48 11.5 -83t32 -57.5t48 -33t59.5 -10.5q14 0 27 1t25.5 2.5t24.5 4.5l24 6v-68q-13 -4 -25.5 -6.5t-25.5 -4.5t-27.5 -3t-31.5 -1q-49 0 -89 14.5
t-69.5 45.5t-46 78.5t-16.5 111.5q0 59 18.5 106t50 80t72.5 49.5t86 16.5q15 0 27.5 -0.5t24.5 -2t24.5 -4t26.5 -6.5zM207 552l98 145h87l-119 -145h-66z"/>
      <glyph glyph-name="Ccircumflex" unicode="&#x108;" horiz-adv-x="526"
             d="M53 0zM499 77v-68q-21 -5 -37 -7.5t-32 -4.5t-34.5 -3t-41.5 -1q-64 0 -119 20.5t-96 61t-63.5 100.5t-22.5 138q0 87 26 153.5t71 110t101.5 64.5t117.5 21q20 0 36 -1t31 -2.5t29.5 -3.5t32.5 -6l-9 -70q-22 4 -36.5 6.5t-27.5 4t-27 2t-33 0.5q-45 0 -86 -16.5
t-73.5 -50t-51 -84t-18.5 -116.5q0 -65 17.5 -114.5t48.5 -82.5t73 -49t90 -16q20 0 35.5 0.5t31 2t32 4.5t35.5 7zM190 721l103 145h81l99 -145h-76l-60 88h-16l-61 -88h-70z"/>
      <glyph glyph-name="ccircumflex" unicode="&#x109;" horiz-adv-x="408"
             d="M50 0zM380 483l-9 -68q-15 3 -27 5.5t-22.5 4t-22 2t-24.5 0.5q-30 0 -56.5 -12t-46.5 -35.5t-31.5 -57t-11.5 -75.5q0 -48 11.5 -83t32 -57.5t48 -33t59.5 -10.5q14 0 27 1t25.5 2.5t24.5 4.5l24 6v-68q-13 -4 -25.5 -6.5t-25.5 -4.5t-27.5 -3t-31.5 -1q-49 0 -89 14.5
t-69.5 45.5t-46 78.5t-16.5 111.5q0 59 18.5 106t50 80t72.5 49.5t86 16.5q15 0 27.5 -0.5t24.5 -2t24.5 -4t26.5 -6.5zM101 552l103 145h81l99 -145h-76l-60 88h-16l-61 -88h-70z"/>
      <glyph glyph-name="Cdotaccent" unicode="&#x10a;" horiz-adv-x="526"
             d="M53 0zM499 77v-68q-21 -5 -37 -7.5t-32 -4.5t-34.5 -3t-41.5 -1q-64 0 -119 20.5t-96 61t-63.5 100.5t-22.5 138q0 87 26 153.5t71 110t101.5 64.5t117.5 21q20 0 36 -1t31 -2.5t29.5 -3.5t32.5 -6l-9 -70q-22 4 -36.5 6.5t-27.5 4t-27 2t-33 0.5q-45 0 -86 -16.5
t-73.5 -50t-51 -84t-18.5 -116.5q0 -65 17.5 -114.5t48.5 -82.5t73 -49t90 -16q20 0 35.5 0.5t31 2t32 4.5t35.5 7zM287 774q0 11 3.5 20t9.5 15t15 9.5t20 3.5t20 -3t15 -9.5t9.5 -15t3.5 -20.5q0 -11 -3.5 -20t-9.5 -15t-15 -9t-20 -3t-20 3t-15 9t-9.5 15t-3.5 20z"/>
      <glyph glyph-name="cdotaccent" unicode="&#x10b;" horiz-adv-x="408"
             d="M50 0zM380 483l-9 -68q-15 3 -27 5.5t-22.5 4t-22 2t-24.5 0.5q-30 0 -56.5 -12t-46.5 -35.5t-31.5 -57t-11.5 -75.5q0 -48 11.5 -83t32 -57.5t48 -33t59.5 -10.5q14 0 27 1t25.5 2.5t24.5 4.5l24 6v-68q-13 -4 -25.5 -6.5t-25.5 -4.5t-27.5 -3t-31.5 -1q-49 0 -89 14.5
t-69.5 45.5t-46 78.5t-16.5 111.5q0 59 18.5 106t50 80t72.5 49.5t86 16.5q15 0 27.5 -0.5t24.5 -2t24.5 -4t26.5 -6.5zM198 604q0 11 3.5 20t9.5 15t15 9.5t20 3.5t20 -3t15 -9.5t9.5 -15t3.5 -20.5q0 -11 -3.5 -20t-9.5 -15t-15 -9t-20 -3t-20 3t-15 9t-9.5 15t-3.5 20z
"/>
      <glyph glyph-name="Ccaron" unicode="&#x10c;" horiz-adv-x="526"
             d="M53 0zM499 77v-68q-21 -5 -37 -7.5t-32 -4.5t-34.5 -3t-41.5 -1q-64 0 -119 20.5t-96 61t-63.5 100.5t-22.5 138q0 87 26 153.5t71 110t101.5 64.5t117.5 21q20 0 36 -1t31 -2.5t29.5 -3.5t32.5 -6l-9 -70q-22 4 -36.5 6.5t-27.5 4t-27 2t-33 0.5q-45 0 -86 -16.5
t-73.5 -50t-51 -84t-18.5 -116.5q0 -65 17.5 -114.5t48.5 -82.5t73 -49t90 -16q20 0 35.5 0.5t31 2t32 4.5t35.5 7zM475 866l-103 -145h-82l-98 145h76l60 -88h16l61 88h70z"/>
      <glyph glyph-name="ccaron" unicode="&#x10d;" horiz-adv-x="408"
             d="M50 0zM380 483l-9 -68q-15 3 -27 5.5t-22.5 4t-22 2t-24.5 0.5q-30 0 -56.5 -12t-46.5 -35.5t-31.5 -57t-11.5 -75.5q0 -48 11.5 -83t32 -57.5t48 -33t59.5 -10.5q14 0 27 1t25.5 2.5t24.5 4.5l24 6v-68q-13 -4 -25.5 -6.5t-25.5 -4.5t-27.5 -3t-31.5 -1q-49 0 -89 14.5
t-69.5 45.5t-46 78.5t-16.5 111.5q0 59 18.5 106t50 80t72.5 49.5t86 16.5q15 0 27.5 -0.5t24.5 -2t24.5 -4t26.5 -6.5zM385 697l-103 -145h-82l-98 145h76l60 -88h16l61 88h70z"/>
      <glyph glyph-name="Dcaron" unicode="&#x10e;" horiz-adv-x="654"
             d="M98 0zM277 0h-179v656h174q78 0 139 -19.5t103.5 -58.5t64.5 -97.5t22 -134.5q0 -85 -23 -150t-65.5 -108.5t-102 -65.5t-133.5 -22zM177 588v-520h101q55 0 99 16.5t75.5 50t48.5 85t17 121.5q0 62 -17 108.5t-49.5 77.5t-79.5 46t-106 15h-89zM464 866l-103 -145h-82
l-98 145h76l60 -88h16l61 88h70z"/>
      <glyph glyph-name="dcaron" unicode="&#x10f;" horiz-adv-x="535"
             d="M50 0zM290 428q-37 0 -66.5 -12.5t-51 -37t-32.5 -60t-11 -79.5q0 -43 10.5 -76.5t29.5 -55.5t45.5 -33t58.5 -11q16 0 30 2t26.5 5.5t24.5 9.5t25 14v326q-12 2 -22.5 3.5t-21.5 2.5t-22 1.5t-23 0.5zM455 699v-699h-74v32q-13 -9 -27.5 -16t-30.5 -12t-33 -7.5
t-34 -2.5q-45 0 -82.5 15.5t-65 45.5t-43 75t-15.5 102q0 62 18 111.5t51 83t78 51t99 17.5q13 0 24.5 -0.5t21.5 -2t19.5 -3.5t17.5 -5v209zM509 648q0 12 3.5 21t10 16t15.5 10.5t20 3.5q10 0 18 -3.5t14 -10t9.5 -16.5t3.5 -22q0 -15 -4.5 -33t-12.5 -36t-18.5 -34.5
t-21.5 -28.5h-35l25 86q-6 3 -11 8t-8.5 10.5t-5.5 12.5t-2 16z"/>
      <glyph glyph-name="Dcroat" unicode="&#x110;" horiz-adv-x="654"
             d="M277 0h-179v309h-66v63h66v284h174q78 0 139 -19.5t103.5 -58.5t64.5 -97.5t22 -134.5q0 -85 -23 -150t-65.5 -108.5t-102 -65.5t-133.5 -22zM177 588v-216h124v-63h-124v-241h101q55 0 99 16.5t75.5 50t48.5 85t17 121.5q0 62 -17 108.5t-49.5 77.5t-79.5 46t-106 15
h-89z"/>
      <glyph glyph-name="dcroat" unicode="&#x111;" horiz-adv-x="535"
             d="M290 428q-37 0 -66.5 -12.5t-51 -37t-32.5 -60t-11 -79.5q0 -43 10.5 -76.5t29.5 -55.5t45.5 -33t58.5 -11q16 0 30 2t26.5 5.5t24.5 9.5t25 14v326q-12 2 -22.5 3.5t-21.5 2.5t-22 1.5t-23 0.5zM455 699v-81h68v-59h-68v-559h-74v32q-13 -9 -27.5 -16t-30.5 -12
t-33 -7.5t-34 -2.5q-45 0 -82.5 15.5t-65 45.5t-43 75t-15.5 102q0 62 18 111.5t51 83t78 51t99 17.5q13 0 24.5 -0.5t21.5 -2t19.5 -3.5t17.5 -5v75h-101v59h101v75z"/>
      <glyph glyph-name="Emacron" unicode="&#x112;" horiz-adv-x="489"
             d="M98 0zM98 0v656h324v-69h-245v-215h221v-69h-221v-234h248v-69h-327zM129 734v57h241v-57h-241z"/>
      <glyph glyph-name="emacron" unicode="&#x113;" horiz-adv-x="484"
             d="M50 0zM50 244q0 61 15.5 109t43.5 80t65.5 48.5t79.5 16.5q44 0 78.5 -12.5t58.5 -37.5t36.5 -61.5t12.5 -84.5v-16.5v-14t-0.5 -15t-1.5 -14.5h-312q0 -46 11.5 -80t32.5 -56t49.5 -32.5t63.5 -10.5q21 0 40 2t37 5.5t36 9.5t36 14v-68q-20 -9 -38 -14.5t-36.5 -9.5
t-39 -6t-44.5 -2q-51 0 -92.5 15t-71 45.5t-45 78t-15.5 111.5zM129 303h230q0 32 -7 57t-21 41.5t-34.5 24.5t-46.5 8q-23 0 -43 -9t-36.5 -26t-27 -41.5t-14.5 -54.5zM134 564v57h241v-57h-241z"/>
      <glyph glyph-name="Ebreve" unicode="&#x114;" horiz-adv-x="489"
             d="M98 0zM98 0v656h324v-69h-245v-215h221v-69h-221v-234h248v-69h-327zM253 721h-8q-29 0 -53 9.5t-41.5 28t-26.5 46t-9 61.5h68q0 -22 5 -39t13.5 -28.5t19.5 -17.5t24 -6h14q12 0 24 6t21 18t14 29t5 38h61q0 -34 -10 -61t-27.5 -46t-41.5 -28.5t-52 -9.5z"/>
      <glyph glyph-name="ebreve" unicode="&#x115;" horiz-adv-x="484"
             d="M50 0zM50 244q0 61 15.5 109t43.5 80t65.5 48.5t79.5 16.5q44 0 78.5 -12.5t58.5 -37.5t36.5 -61.5t12.5 -84.5v-16.5v-14t-0.5 -15t-1.5 -14.5h-312q0 -46 11.5 -80t32.5 -56t49.5 -32.5t63.5 -10.5q21 0 40 2t37 5.5t36 9.5t36 14v-68q-20 -9 -38 -14.5t-36.5 -9.5
t-39 -6t-44.5 -2q-51 0 -92.5 15t-71 45.5t-45 78t-15.5 111.5zM129 303h230q0 32 -7 57t-21 41.5t-34.5 24.5t-46.5 8q-23 0 -43 -9t-36.5 -26t-27 -41.5t-14.5 -54.5zM258 551h-8q-29 0 -53 9.5t-41.5 28t-26.5 46t-9 61.5h68q0 -22 5 -39t13.5 -28.5t19.5 -17.5t24 -6h14
q12 0 24 6t21 18t14 29t5 38h61q0 -34 -10 -61t-27.5 -46t-41.5 -28.5t-52 -9.5z"/>
      <glyph glyph-name="Edotaccent" unicode="&#x116;" horiz-adv-x="489"
             d="M98 0zM98 0v656h324v-69h-245v-215h221v-69h-221v-234h248v-69h-327zM201 774q0 11 3.5 20t9.5 15t15 9.5t20 3.5t20 -3t15 -9.5t9.5 -15t3.5 -20.5q0 -11 -3.5 -20t-9.5 -15t-15 -9t-20 -3t-20 3t-15 9t-9.5 15t-3.5 20z"/>
      <glyph glyph-name="edotaccent" unicode="&#x117;" horiz-adv-x="484"
             d="M50 0zM50 244q0 61 15.5 109t43.5 80t65.5 48.5t79.5 16.5q44 0 78.5 -12.5t58.5 -37.5t36.5 -61.5t12.5 -84.5v-16.5v-14t-0.5 -15t-1.5 -14.5h-312q0 -46 11.5 -80t32.5 -56t49.5 -32.5t63.5 -10.5q21 0 40 2t37 5.5t36 9.5t36 14v-68q-20 -9 -38 -14.5t-36.5 -9.5
t-39 -6t-44.5 -2q-51 0 -92.5 15t-71 45.5t-45 78t-15.5 111.5zM129 303h230q0 32 -7 57t-21 41.5t-34.5 24.5t-46.5 8q-23 0 -43 -9t-36.5 -26t-27 -41.5t-14.5 -54.5zM206 604q0 11 3.5 20t9.5 15t15 9.5t20 3.5t20 -3t15 -9.5t9.5 -15t3.5 -20.5q0 -11 -3.5 -20t-9.5 -15
t-15 -9t-20 -3t-20 3t-15 9t-9.5 15t-3.5 20z"/>
      <glyph glyph-name="Eogonek" unicode="&#x118;" horiz-adv-x="489"
             d="M98 0v656h324v-69h-245v-215h221v-69h-221v-234h248v-69h-100q-22 -13 -38 -26t-26.5 -25.5t-15.5 -24.5t-5 -23q0 -9 2.5 -16t8 -11.5t13.5 -7t18 -2.5q8 0 15.5 0.5t15.5 2t15.5 3t15.5 4.5v-51q-7 -4 -15.5 -6.5t-17.5 -4t-18.5 -2.5t-19.5 -1q-27 0 -47 5.5t-33 15.5
t-19.5 25.5t-6.5 35.5q0 13 5.5 27.5t16 28.5t26 27.5t35.5 25.5h-152z"/>
      <glyph glyph-name="eogonek" unicode="&#x119;" horiz-adv-x="484"
             d="M50 244q0 61 15.5 109t43.5 80t65.5 48.5t79.5 16.5q44 0 78.5 -12.5t58.5 -37.5t36.5 -61.5t12.5 -84.5v-16.5v-14t-0.5 -15t-1.5 -14.5h-312q0 -46 11.5 -80t32.5 -56t49.5 -32.5t63.5 -10.5q21 0 40 2t37 5.5t36 9.5t36 14v-68q-16 -7 -30.5 -12t-29 -9t-29.5 -6.5
t-31 -3.5q-20 -13 -34 -25.5t-23 -24t-13 -22.5t-4 -22q0 -9 3 -16t8.5 -11.5t13.5 -7t18 -2.5q8 0 15.5 0.5t15 2l15 3t15.5 4.5v-51q-7 -4 -15.5 -6.5t-17.5 -4t-18.5 -2.5t-19.5 -1q-27 0 -47 5.5t-33 15.5t-19.5 25.5t-6.5 35.5q0 13 5 26.5t14.5 27t24 27t32.5 24.5
q-44 5 -79 22t-60 47t-38.5 75t-13.5 104zM129 303h230q0 32 -7 57t-21 41.5t-34.5 24.5t-46.5 8q-23 0 -43 -9t-36.5 -26t-27 -41.5t-14.5 -54.5z"/>
      <glyph glyph-name="Ecaron" unicode="&#x11a;" horiz-adv-x="489"
             d="M98 0zM98 0v656h324v-69h-245v-215h221v-69h-221v-234h248v-69h-327zM392 866l-103 -145h-82l-98 145h76l60 -88h16l61 88h70z"/>
      <glyph glyph-name="ecaron" unicode="&#x11b;" horiz-adv-x="484"
             d="M50 0zM50 244q0 61 15.5 109t43.5 80t65.5 48.5t79.5 16.5q44 0 78.5 -12.5t58.5 -37.5t36.5 -61.5t12.5 -84.5v-16.5v-14t-0.5 -15t-1.5 -14.5h-312q0 -46 11.5 -80t32.5 -56t49.5 -32.5t63.5 -10.5q21 0 40 2t37 5.5t36 9.5t36 14v-68q-20 -9 -38 -14.5t-36.5 -9.5
t-39 -6t-44.5 -2q-51 0 -92.5 15t-71 45.5t-45 78t-15.5 111.5zM129 303h230q0 32 -7 57t-21 41.5t-34.5 24.5t-46.5 8q-23 0 -43 -9t-36.5 -26t-27 -41.5t-14.5 -54.5zM396 697l-103 -145h-82l-98 145h76l60 -88h16l61 88h70z"/>
      <glyph glyph-name="Gcircumflex" unicode="&#x11c;" horiz-adv-x="627"
             d="M53 0zM350 241v69h199v-299q-23 -5 -45.5 -8t-45 -5.5t-46.5 -3.5t-50 -1q-65 0 -121 20.5t-98.5 60.5t-66 100.5t-23.5 138.5q0 90 28.5 157t77.5 109.5t109.5 62.5t125.5 20q21 0 39.5 -1t35 -2.5t32.5 -4t35 -5.5l-9 -70q-31 5 -42.5 6.5t-26.5 3t-31 2.5t-36 1
q-50 0 -95.5 -15.5t-81.5 -48.5t-57 -84t-21 -119q0 -65 18.5 -115t51.5 -83t75 -49t90 -16h27t23.5 1t23.5 2t26 3v173h-121zM194 721l103 145h81l99 -145h-76l-60 88h-16l-61 -88h-70z"/>
      <glyph glyph-name="gcircumflex" unicode="&#x11d;" horiz-adv-x="496"
             d="M33 0zM236 208q30 0 51.5 6.5t36 20.5t21.5 36.5t7 53.5q0 27 -7.5 47.5t-22 34t-35 20.5t-46.5 7t-47 -7t-36 -21.5t-22.5 -36t-7.5 -50.5q0 -30 8 -51.5t22.5 -34.5t34 -19t43.5 -6zM140 119q0 -9 3.5 -16.5t10.5 -13t19 -8.5t28 -3l131 -4q34 -1 59.5 -9t42 -22
t24.5 -33t8 -43q0 -35 -14.5 -64.5t-44 -51.5t-74 -34t-102.5 -12q-46 0 -83 9t-62.5 26t-39 41t-13.5 52q0 16 6 32.5t17 30.5t26 25.5t31 18.5v4q-8 4 -15.5 10t-12.5 14t-8 17t-3 20t3.5 21.5t10.5 19.5t17 16.5t22 11.5v3q-17 9 -31 21.5t-23.5 29.5t-15 38t-5.5 46
q0 42 13 76t38.5 57.5t62 36t81.5 12.5q9 0 19.5 -0.5t20.5 -1.5t19 -2.5t16 -3.5h150v-57h-92v-3q11 -7 19.5 -18t15 -24.5t10 -29.5t3.5 -33q0 -42 -13.5 -73.5t-39.5 -53t-63.5 -32.5t-84.5 -11q-8 0 -15 0.5l-14 1t-13.5 2t-12.5 2.5q-7 -2 -12.5 -6t-10 -9t-7 -11
t-2.5 -12zM102 -54q0 -18 9 -32.5t26.5 -25t42.5 -16t58 -5.5q42 0 72.5 6t50 17.5t29 27t9.5 34.5q0 13 -4 23t-13 16.5t-23.5 10.5t-35.5 5l-167 8q-13 -5 -23 -11.5t-17 -15t-10.5 -19.5t-3.5 -23zM109 552l103 145h81l99 -145h-76l-60 88h-16l-61 -88h-70z"/>
      <glyph glyph-name="Gbreve" unicode="&#x11e;" horiz-adv-x="627"
             d="M53 0zM350 241v69h199v-299q-23 -5 -45.5 -8t-45 -5.5t-46.5 -3.5t-50 -1q-65 0 -121 20.5t-98.5 60.5t-66 100.5t-23.5 138.5q0 90 28.5 157t77.5 109.5t109.5 62.5t125.5 20q21 0 39.5 -1t35 -2.5t32.5 -4t35 -5.5l-9 -70q-31 5 -42.5 6.5t-26.5 3t-31 2.5t-36 1
q-50 0 -95.5 -15.5t-81.5 -48.5t-57 -84t-21 -119q0 -65 18.5 -115t51.5 -83t75 -49t90 -16h27t23.5 1t23.5 2t26 3v173h-121zM344 721h-8q-29 0 -53 9.5t-41.5 28t-26.5 46t-9 61.5h68q0 -22 5 -39t13.5 -28.5t19.5 -17.5t24 -6h14q12 0 24 6t21 18t14 29t5 38h61
q0 -34 -10 -61t-27.5 -46t-41.5 -28.5t-52 -9.5z"/>
      <glyph glyph-name="gbreve" unicode="&#x11f;" horiz-adv-x="496"
             d="M33 0zM236 208q30 0 51.5 6.5t36 20.5t21.5 36.5t7 53.5q0 27 -7.5 47.5t-22 34t-35 20.5t-46.5 7t-47 -7t-36 -21.5t-22.5 -36t-7.5 -50.5q0 -30 8 -51.5t22.5 -34.5t34 -19t43.5 -6zM140 119q0 -9 3.5 -16.5t10.5 -13t19 -8.5t28 -3l131 -4q34 -1 59.5 -9t42 -22
t24.5 -33t8 -43q0 -35 -14.5 -64.5t-44 -51.5t-74 -34t-102.5 -12q-46 0 -83 9t-62.5 26t-39 41t-13.5 52q0 16 6 32.5t17 30.5t26 25.5t31 18.5v4q-8 4 -15.5 10t-12.5 14t-8 17t-3 20t3.5 21.5t10.5 19.5t17 16.5t22 11.5v3q-17 9 -31 21.5t-23.5 29.5t-15 38t-5.5 46
q0 42 13 76t38.5 57.5t62 36t81.5 12.5q9 0 19.5 -0.5t20.5 -1.5t19 -2.5t16 -3.5h150v-57h-92v-3q11 -7 19.5 -18t15 -24.5t10 -29.5t3.5 -33q0 -42 -13.5 -73.5t-39.5 -53t-63.5 -32.5t-84.5 -11q-8 0 -15 0.5l-14 1t-13.5 2t-12.5 2.5q-7 -2 -12.5 -6t-10 -9t-7 -11
t-2.5 -12zM102 -54q0 -18 9 -32.5t26.5 -25t42.5 -16t58 -5.5q42 0 72.5 6t50 17.5t29 27t9.5 34.5q0 13 -4 23t-13 16.5t-23.5 10.5t-35.5 5l-167 8q-13 -5 -23 -11.5t-17 -15t-10.5 -19.5t-3.5 -23zM254 551h-8q-29 0 -53 9.5t-41.5 28t-26.5 46t-9 61.5h68q0 -22 5 -39
t13.5 -28.5t19.5 -17.5t24 -6h14q12 0 24 6t21 18t14 29t5 38h61q0 -34 -10 -61t-27.5 -46t-41.5 -28.5t-52 -9.5z"/>
      <glyph glyph-name="Gdotaccent" unicode="&#x120;" horiz-adv-x="627"
             d="M53 0zM350 241v69h199v-299q-23 -5 -45.5 -8t-45 -5.5t-46.5 -3.5t-50 -1q-65 0 -121 20.5t-98.5 60.5t-66 100.5t-23.5 138.5q0 90 28.5 157t77.5 109.5t109.5 62.5t125.5 20q21 0 39.5 -1t35 -2.5t32.5 -4t35 -5.5l-9 -70q-31 5 -42.5 6.5t-26.5 3t-31 2.5t-36 1
q-50 0 -95.5 -15.5t-81.5 -48.5t-57 -84t-21 -119q0 -65 18.5 -115t51.5 -83t75 -49t90 -16h27t23.5 1t23.5 2t26 3v173h-121zM295 774q0 11 3.5 20t9.5 15t15 9.5t20 3.5t20 -3t15 -9.5t9.5 -15t3.5 -20.5q0 -11 -3.5 -20t-9.5 -15t-15 -9t-20 -3t-20 3t-15 9t-9.5 15
t-3.5 20z"/>
      <glyph glyph-name="gdotaccent" unicode="&#x121;" horiz-adv-x="496"
             d="M33 0zM236 208q30 0 51.5 6.5t36 20.5t21.5 36.5t7 53.5q0 27 -7.5 47.5t-22 34t-35 20.5t-46.5 7t-47 -7t-36 -21.5t-22.5 -36t-7.5 -50.5q0 -30 8 -51.5t22.5 -34.5t34 -19t43.5 -6zM140 119q0 -9 3.5 -16.5t10.5 -13t19 -8.5t28 -3l131 -4q34 -1 59.5 -9t42 -22
t24.5 -33t8 -43q0 -35 -14.5 -64.5t-44 -51.5t-74 -34t-102.5 -12q-46 0 -83 9t-62.5 26t-39 41t-13.5 52q0 16 6 32.5t17 30.5t26 25.5t31 18.5v4q-8 4 -15.5 10t-12.5 14t-8 17t-3 20t3.5 21.5t10.5 19.5t17 16.5t22 11.5v3q-17 9 -31 21.5t-23.5 29.5t-15 38t-5.5 46
q0 42 13 76t38.5 57.5t62 36t81.5 12.5q9 0 19.5 -0.5t20.5 -1.5t19 -2.5t16 -3.5h150v-57h-92v-3q11 -7 19.5 -18t15 -24.5t10 -29.5t3.5 -33q0 -42 -13.5 -73.5t-39.5 -53t-63.5 -32.5t-84.5 -11q-8 0 -15 0.5l-14 1t-13.5 2t-12.5 2.5q-7 -2 -12.5 -6t-10 -9t-7 -11
t-2.5 -12zM102 -54q0 -18 9 -32.5t26.5 -25t42.5 -16t58 -5.5q42 0 72.5 6t50 17.5t29 27t9.5 34.5q0 13 -4 23t-13 16.5t-23.5 10.5t-35.5 5l-167 8q-13 -5 -23 -11.5t-17 -15t-10.5 -19.5t-3.5 -23zM202 604q0 11 3.5 20t9.5 15t15 9.5t20 3.5t20 -3t15 -9.5t9.5 -15
t3.5 -20.5q0 -11 -3.5 -20t-9.5 -15t-15 -9t-20 -3t-20 3t-15 9t-9.5 15t-3.5 20z"/>
      <glyph glyph-name="Gcommaaccent" unicode="&#x122;" horiz-adv-x="627"
             d="M53 0zM350 241v69h199v-299q-23 -5 -45.5 -8t-45 -5.5t-46.5 -3.5t-50 -1q-65 0 -121 20.5t-98.5 60.5t-66 100.5t-23.5 138.5q0 90 28.5 157t77.5 109.5t109.5 62.5t125.5 20q21 0 39.5 -1t35 -2.5t32.5 -4t35 -5.5l-9 -70q-31 5 -42.5 6.5t-26.5 3t-31 2.5t-36 1
q-50 0 -95.5 -15.5t-81.5 -48.5t-57 -84t-21 -119q0 -65 18.5 -115t51.5 -83t75 -49t90 -16h27t23.5 1t23.5 2t26 3v173h-121zM296 -100q0 12 3.5 21.5t10 16.5t15.5 10.5t21 3.5q10 0 18.5 -3.5t14.5 -10.5t9.5 -16.5t3.5 -22.5q0 -15 -4.5 -34.5t-13 -39.5t-19 -37.5
t-21.5 -29.5h-36l26 94q-7 4 -12 8t-8.5 10t-5.5 13.5t-2 16.5z"/>
      <glyph glyph-name="gcommaaccent" unicode="&#x123;" horiz-adv-x="496"
             d="M281 587q0 -12 -3.5 -21t-10 -16t-15.5 -10.5t-20 -3.5q-10 0 -18 3.5t-14 10t-9.5 16.5t-3.5 22q0 15 4.5 33t12.5 36t18.5 34.5t21.5 28.5h35l-25 -86q6 -3 11 -8t8.5 -10.5t5.5 -12.5t2 -16zM236 208q30 0 51.5 6.5t36 20.5t21.5 36.5t7 53.5q0 27 -7.5 47.5t-22 34
t-35 20.5t-46.5 7t-47 -7t-36 -21.5t-22.5 -36t-7.5 -50.5q0 -30 8 -51.5t22.5 -34.5t34 -19t43.5 -6zM140 119q0 -9 3.5 -16.5t10.5 -13t19 -8.5t28 -3l131 -4q34 -1 59.5 -9t42 -22t24.5 -33t8 -43q0 -35 -14.5 -64.5t-44 -51.5t-74 -34t-102.5 -12q-46 0 -83 9t-62.5 26
t-39 41t-13.5 52q0 16 6 32.5t17 30.5t26 25.5t31 18.5v4q-8 4 -15.5 10t-12.5 14t-8 17t-3 20t3.5 21.5t10.5 19.5t17 16.5t22 11.5v3q-17 9 -31 21.5t-23.5 29.5t-15 38t-5.5 46q0 42 13 76t38.5 57.5t62 36t81.5 12.5q9 0 19.5 -0.5t20.5 -1.5t19 -2.5t16 -3.5h150v-57
h-92v-3q11 -7 19.5 -18t15 -24.5t10 -29.5t3.5 -33q0 -42 -13.5 -73.5t-39.5 -53t-63.5 -32.5t-84.5 -11q-8 0 -15 0.5l-14 1t-13.5 2t-12.5 2.5q-7 -2 -12.5 -6t-10 -9t-7 -11t-2.5 -12zM102 -54q0 -18 9 -32.5t26.5 -25t42.5 -16t58 -5.5q42 0 72.5 6t50 17.5t29 27
t9.5 34.5q0 13 -4 23t-13 16.5t-23.5 10.5t-35.5 5l-167 8q-13 -5 -23 -11.5t-17 -15t-10.5 -19.5t-3.5 -23z"/>
      <glyph glyph-name="Hcircumflex" unicode="&#x124;" horiz-adv-x="654"
             d="M98 0zM477 0v301h-300v-301h-79v656h79v-285h300v285h79v-656h-79zM185 721l103 145h81l99 -145h-76l-60 88h-16l-61 -88h-70z"/>
      <glyph glyph-name="hcircumflex" unicode="&#x125;"
             d="M80 0zM382 0v321q0 24 -7 43t-21 32.5t-34.5 21t-46.5 7.5q-17 0 -31.5 -1.5t-28 -4.5t-27.5 -7.5t-30 -11.5v-400h-76v693l76 6v-238q17 9 32.5 15.5t31 10.5t32 6t35.5 2q41 0 73 -11t54 -32t33 -52t11 -71v-329h-76zM119 725l103 145h81l99 -145h-76l-60 88h-16
l-61 -88h-70z"/>
      <glyph glyph-name="Hbar" unicode="&#x126;" horiz-adv-x="654"
             d="M176 371h302v112h-302v-112zM37 483v56h61v117h79v-117h300v117h79v-117h61v-56h-61v-483h-79v301h-300v-301h-79v483h-61z"/>
      <glyph glyph-name="hbar" unicode="&#x127;"
             d="M12 557v58h68v78l76 6v-84h103v-58h-103v-96q17 9 32.5 15.5t31 10.5t32 6t35.5 2q41 0 73 -11t54 -32t33 -52t11 -71v-329h-76v321q0 24 -7 43t-21 32.5t-34.5 21t-46.5 7.5q-17 0 -31.5 -1.5t-28 -4.5t-27.5 -7.5t-30 -11.5v-400h-76v557h-68z"/>
      <glyph glyph-name="Itilde" unicode="&#x128;" horiz-adv-x="274"
             d="M0 0zM177 656v-656h-79v656h79zM269 816l23 -46q-9 -13 -18 -23t-20 -17.5t-24.5 -11t-29.5 -3.5t-32 7.5t-38.5 22.5t-34.5 21.5t-23 6.5q-8 0 -16.5 -2.5t-17 -7t-17 -12t-15.5 -16.5l-23 46q9 13 20.5 23.5t24 18t26 11.5t27.5 4q18 0 34.5 -7.5t38.5 -22.5t33 -21.5
t22 -6.5q8 0 16 2.5t15.5 7t15 11t13.5 15.5z"/>
      <glyph glyph-name="itilde" unicode="&#x129;" horiz-adv-x="236"
             d="M0 0zM156 492v-492h-76v486zM250 657l23 -46q-9 -13 -18 -23t-20 -17.5t-24.5 -11t-29.5 -3.5t-32 7.5t-38.5 22.5t-34.5 21.5t-23 6.5q-8 0 -16.5 -2.5t-17 -7t-17 -12t-15.5 -16.5l-23 46q9 13 20.5 23.5t24 18t26 11.5t27.5 4q18 0 34.5 -7.5t38.5 -22.5t33 -21.5
t22 -6.5q8 0 16 2.5t15.5 7t15 11t13.5 15.5z"/>
      <glyph glyph-name="Imacron" unicode="&#x12a;" horiz-adv-x="274"
             d="M18 0zM177 656v-656h-79v656h79zM18 734v57h241v-57h-241z"/>
      <glyph glyph-name="imacron" unicode="&#x12b;" horiz-adv-x="236"
             d="M0 0zM156 492v-492h-76v486zM-1 564v57h241v-57h-241z"/>
      <glyph glyph-name="Ibreve" unicode="&#x12c;" horiz-adv-x="274"
             d="M4 0zM177 656v-656h-79v656h79zM142 721h-8q-29 0 -53 9.5t-41.5 28t-26.5 46t-9 61.5h68q0 -22 5 -39t13.5 -28.5t19.5 -17.5t24 -6h14q12 0 24 6t21 18t14 29t5 38h61q0 -34 -10 -61t-27.5 -46t-41.5 -28.5t-52 -9.5z"/>
      <glyph glyph-name="ibreve" unicode="&#x12d;" horiz-adv-x="236"
             d="M0 0zM156 492v-492h-76v486zM123 551h-8q-29 0 -53 9.5t-41.5 28t-26.5 46t-9 61.5h68q0 -22 5 -39t13.5 -28.5t19.5 -17.5t24 -6h14q12 0 24 6t21 18t14 29t5 38h61q0 -34 -10 -61t-27.5 -46t-41.5 -28.5t-52 -9.5z"/>
      <glyph glyph-name="Iogonek" unicode="&#x12e;" horiz-adv-x="274"
             d="M101 0h-3v656h79v-656h-1q-22 -13 -38 -26t-26.5 -25.5t-15.5 -24.5t-5 -23q0 -9 3 -16t8.5 -11.5t13.5 -7t18 -2.5q8 0 15.5 0.5t15 2l15 3t15.5 4.5v-51q-7 -4 -15.5 -6.5t-17.5 -4t-18.5 -2.5t-19.5 -1q-27 0 -47 5.5t-33 15.5t-19.5 25.5t-6.5 35.5q0 13 5.5 27.5
t16 28.5t26 27.5t35.5 25.5z"/>
      <glyph glyph-name="iogonek" unicode="&#x12f;" horiz-adv-x="236"
             d="M69 649q0 11 3.5 20.5t10 15.5t15.5 9.5t20 3.5t20 -3.5t15 -9.5t9.5 -15t3.5 -21q0 -11 -3.5 -20t-9.5 -15t-15 -9.5t-20 -3.5t-20 3.5t-15.5 9.5t-10 15t-3.5 20zM85 0h-5v486l76 6v-492q-22 -15 -37 -28t-25 -25t-14.5 -23.5t-4.5 -22.5q0 -9 3 -16t8.5 -11.5t13.5 -7
t18 -2.5q8 0 15.5 0.5t15 2l15 3t15.5 4.5v-51q-7 -4 -15.5 -6.5t-17.5 -4t-18.5 -2.5t-19.5 -1q-27 0 -47 5.5t-33 15.5t-19.5 25.5t-6.5 35.5q0 13 5.5 27.5t16 28.5t26 27.5t35.5 25.5z"/>
      <glyph glyph-name="Idotaccent" unicode="&#x130;" horiz-adv-x="274"
             d="M89 0zM177 656v-656h-79v656h79zM89 774q0 11 3.5 20t9.5 15t15 9.5t20 3.5t20 -3t15 -9.5t9.5 -15t3.5 -20.5q0 -11 -3.5 -20t-9.5 -15t-15 -9t-20 -3t-20 3t-15 9t-9.5 15t-3.5 20z"/>
      <glyph glyph-name="dotlessi" unicode="&#x131;" horiz-adv-x="236"
             d="M156 492v-492h-76v486z"/>
      <glyph glyph-name="IJ" unicode="&#x132;" horiz-adv-x="599"
             d="M177 656v-656h-79v656h79zM504 656v-495q0 -40 -12 -71.5t-33.5 -52.5t-51.5 -32t-65 -11h-13t-14 0.5t-13 1.5t-11 2v70q5 -1 11 -2t12.5 -1.5t12.5 -0.5h12q20 0 36 6t27 18.5t17 31.5t6 43v493h79z"/>
      <glyph glyph-name="ij" unicode="&#x133;" horiz-adv-x="472"
             d="M305 649q0 11 3.5 20.5t10 15.5t15.5 9.5t20 3.5t20 -3.5t15 -9.5t9.5 -15t3.5 -21q0 -11 -3.5 -20t-9.5 -15t-15 -9.5t-20 -3.5t-20 3.5t-15.5 9.5t-10 15t-3.5 20zM69 649q0 11 3.5 20.5t10 15.5t15.5 9.5t20 3.5t20 -3.5t15 -9.5t9.5 -15t3.5 -21q0 -11 -3.5 -20
t-9.5 -15t-15 -9.5t-20 -3.5t-20 3.5t-15.5 9.5t-10 15t-3.5 20zM392 492v-520q0 -38 -10.5 -67t-30 -49.5t-45.5 -33t-58 -18.5l-10 65q20 6 34.5 15t24.5 21t14.5 28.5t4.5 38.5v514zM156 492v-492h-76v486z"/>
      <glyph glyph-name="Jcircumflex" unicode="&#x134;" horiz-adv-x="325"
             d="M17 0zM230 656v-495q0 -40 -12 -71.5t-33.5 -52.5t-51.5 -32t-65 -11h-13t-14 0.5t-13 1.5t-11 2v70q5 -1 11 -2t12.5 -1.5t12.5 -0.5h12q20 0 36 6t27 18.5t17 31.5t6 43v493h79zM49 721l103 145h81l99 -145h-76l-60 88h-16l-61 -88h-70z"/>
      <glyph glyph-name="jcircumflex" unicode="&#x135;" horiz-adv-x="236"
             d="M156 492v-520q0 -38 -10.5 -67t-30 -49.5t-45.5 -33t-58 -18.5l-10 65q20 6 34.5 15t24.5 21t14.5 28.5t4.5 38.5v514zM-23 551l103 145h81l99 -145h-76l-60 88h-16l-61 -88h-70z"/>
      <glyph glyph-name="Kcommaaccent" unicode="&#x136;" horiz-adv-x="591"
             d="M98 0zM285 -100q0 12 3.5 21.5t10 16.5t15.5 10.5t21 3.5q10 0 18.5 -3.5t14.5 -10.5t9.5 -16.5t3.5 -22.5q0 -15 -4.5 -34.5t-13 -39.5t-19 -37.5t-21.5 -29.5h-36l26 94q-7 4 -12 8t-8.5 10t-5.5 13.5t-2 16.5zM98 656h79v-286h56l234 286h93l-256 -310l263 -346h-102
l-229 300h-59v-300h-79v656z"/>
      <glyph glyph-name="kcommaaccent" unicode="&#x137;" horiz-adv-x="477"
             d="M80 0zM156 234v-234h-76v693l76 6v-399h44l163 189h94l-190 -211l207 -278h-95l-172 234h-51zM231 -99q0 12 3.5 21t10 16t15.5 10.5t20 3.5q10 0 18 -3.5t14 -10t9.5 -16.5t3.5 -22q0 -15 -4.5 -33t-12.5 -36t-18.5 -34.5t-21.5 -28.5h-35l25 86q-6 3 -11 8t-8.5 10.5
t-5.5 12.5t-2 16z"/>
      <glyph glyph-name="Lacute" unicode="&#x139;" horiz-adv-x="450"
             d="M95 0zM98 0v656h79v-587h247v-69h-326zM95 721l98 145h87l-119 -145h-66z"/>
      <glyph glyph-name="lacute" unicode="&#x13a;" horiz-adv-x="236"
             d="M80 0zM156 699v-699h-76v693zM80 754l98 145h87l-119 -145h-66z"/>
      <glyph glyph-name="Lcommaaccent" unicode="&#x13b;" horiz-adv-x="450"
             d="M98 0zM213 -100q0 12 3.5 21.5t10 16.5t15.5 10.5t21 3.5q10 0 18.5 -3.5t14.5 -10.5t9.5 -16.5t3.5 -22.5q0 -15 -4.5 -34.5t-13 -39.5t-19 -37.5t-21.5 -29.5h-36l26 94q-7 4 -12 8t-8.5 10t-5.5 13.5t-2 16.5zM98 0v656h79v-587h247v-69h-326z"/>
      <glyph glyph-name="lcommaaccent" unicode="&#x13c;" horiz-adv-x="236"
             d="M72 0zM72 -99q0 12 3.5 21t10 16t15.5 10.5t20 3.5q10 0 18 -3.5t14 -10t9.5 -16.5t3.5 -22q0 -15 -4.5 -33t-12.5 -36t-18.5 -34.5t-21.5 -28.5h-35l25 86q-6 3 -11 8t-8.5 10.5t-5.5 12.5t-2 16zM156 699v-699h-76v693z"/>
      <glyph glyph-name="Lcaron" unicode="&#x13d;" horiz-adv-x="450"
             d="M98 0zM98 0v656h79v-587h247v-69h-326zM266 604q0 12 3.5 21.5t10 16.5t15.5 10.5t21 3.5q10 0 18.5 -3.5t14.5 -10.5t9.5 -16.5t3.5 -22.5q0 -15 -4.5 -34.5t-13 -39.5t-19 -37.5t-21.5 -29.5h-36l26 94q-7 4 -12 8t-8.5 10t-5.5 13.5t-2 16.5z"/>
      <glyph glyph-name="lcaron" unicode="&#x13e;" horiz-adv-x="236"
             d="M80 0zM156 699v-699h-76v693zM210 648q0 12 3.5 21t10 16t15.5 10.5t20 3.5q10 0 18 -3.5t14 -10t9.5 -16.5t3.5 -22q0 -15 -4.5 -33t-12.5 -36t-18.5 -34.5t-21.5 -28.5h-35l25 86q-6 3 -11 8t-8.5 10.5t-5.5 12.5t-2 16z"/>
      <glyph glyph-name="Ldot" unicode="&#x13f;" horiz-adv-x="450"
             d="M98 0v656h79v-587h247v-69h-326zM257 328q0 11 3.5 20t9.5 15t15 9.5t20 3.5t20 -3t15 -9.5t9.5 -15t3.5 -20.5q0 -11 -3.5 -20t-9.5 -15t-15 -9t-20 -3t-20 3t-15 9t-9.5 15t-3.5 20z"/>
      <glyph glyph-name="ldot" unicode="&#x140;" horiz-adv-x="269"
             d="M156 699v-699h-76v693zM196 345q0 11 3.5 20t9.5 15t15 9.5t20 3.5t20 -3t15 -9.5t9.5 -15t3.5 -20.5q0 -11 -3.5 -20t-9.5 -15t-15 -9t-20 -3t-20 3t-15 9t-9.5 15t-3.5 20z"/>
      <glyph glyph-name="Lslash" unicode="&#x141;" horiz-adv-x="450"
             d="M24 203v70l74 42v341h79v-296l108 64v-71l-108 -63v-221h247v-69h-326v245z"/>
      <glyph glyph-name="lslash" unicode="&#x142;" horiz-adv-x="236"
             d="M156 699v-306l68 40v-70l-68 -40v-323h-76v280l-61 -35v69l61 35v344z"/>
      <glyph glyph-name="Nacute" unicode="&#x143;" horiz-adv-x="654"
             d="M98 0zM434 0l-258 574h-4v-574h-74v656h122l258 -574h5v574h74v-656h-123zM291 721l98 145h87l-119 -145h-66z"/>
      <glyph glyph-name="nacute" unicode="&#x144;"
             d="M80 0zM382 0v321q0 24 -7 43t-21 32.5t-34.5 21t-46.5 7.5q-17 0 -31 -1.5t-28 -4.5t-28 -7.5t-30 -11.5v-400h-76v486l73 6v-33q17 10 33 16.5t31.5 11t32.5 6.5t37 2q41 0 73 -11t54 -32t33 -52t11 -71v-329h-76zM232 552l98 145h87l-119 -145h-66z"/>
      <glyph glyph-name="Ncommaaccent" unicode="&#x145;" horiz-adv-x="654"
             d="M98 0zM280 -100q0 12 3.5 21.5t10 16.5t15.5 10.5t21 3.5q10 0 18.5 -3.5t14.5 -10.5t9.5 -16.5t3.5 -22.5q0 -15 -4.5 -34.5t-13 -39.5t-19 -37.5t-21.5 -29.5h-36l26 94q-7 4 -12 8t-8.5 10t-5.5 13.5t-2 16.5zM434 0l-258 574h-4v-574h-74v656h122l258 -574h5v574h74
v-656h-123z"/>
      <glyph glyph-name="ncommaaccent" unicode="&#x146;"
             d="M80 0zM223 -99q0 12 3.5 21t10 16t15.5 10.5t20 3.5q10 0 18 -3.5t14 -10t9.5 -16.5t3.5 -22q0 -15 -4.5 -33t-12.5 -36t-18.5 -34.5t-21.5 -28.5h-35l25 86q-6 3 -11 8t-8.5 10.5t-5.5 12.5t-2 16zM382 0v321q0 24 -7 43t-21 32.5t-34.5 21t-46.5 7.5q-17 0 -31 -1.5
t-28 -4.5t-28 -7.5t-30 -11.5v-400h-76v486l73 6v-33q17 10 33 16.5t31.5 11t32.5 6.5t37 2q41 0 73 -11t54 -32t33 -52t11 -71v-329h-76z"/>
      <glyph glyph-name="Ncaron" unicode="&#x147;" horiz-adv-x="654"
             d="M98 0zM434 0l-258 574h-4v-574h-74v656h122l258 -574h5v574h74v-656h-123zM470 866l-103 -145h-82l-98 145h76l60 -88h16l61 88h70z"/>
      <glyph glyph-name="ncaron" unicode="&#x148;"
             d="M80 0zM382 0v321q0 24 -7 43t-21 32.5t-34.5 21t-46.5 7.5q-17 0 -31 -1.5t-28 -4.5t-28 -7.5t-30 -11.5v-400h-76v486l73 6v-33q17 10 33 16.5t31.5 11t32.5 6.5t37 2q41 0 73 -11t54 -32t33 -52t11 -71v-329h-76zM411 697l-103 -145h-82l-98 145h76l60 -88h16l61 88h70
z"/>
      <glyph glyph-name="napostrophe" unicode="&#x149;"
             d="M71 649q0 12 3.5 21t10 16t15.5 10.5t20 3.5q10 0 18 -3.5t14 -10t9.5 -16.5t3.5 -22q0 -15 -4.5 -33t-12.5 -36t-18.5 -34.5t-21.5 -28.5h-35l25 86q-6 3 -11 8t-8.5 10.5t-5.5 12.5t-2 16zM382 0v321q0 24 -7 43t-21 32.5t-34.5 21t-46.5 7.5q-17 0 -31 -1.5t-28 -4.5
t-28 -7.5t-30 -11.5v-400h-76v486l73 6v-33q17 10 33 16.5t31.5 11t32.5 6.5t37 2q41 0 73 -11t54 -32t33 -52t11 -71v-329h-76z"/>
      <glyph glyph-name="Eng" unicode="&#x14a;" horiz-adv-x="654"
             d="M434 0l-258 572h-4v-572h-74v656h122l258 -574h5v574h74v-681q0 -40 -12 -71t-33 -52t-50 -31.5t-64 -10.5h-13t-14 0.5t-13 1.5t-11 2v70q5 -1 11 -2t12 -1.5t12 -0.5h12q21 0 37.5 6t28 17.5t18 30t6.5 42.5v24h-50z"/>
      <glyph glyph-name="eng" unicode="&#x14b;"
             d="M458 329v-357q0 -37 -10.5 -66t-30 -49.5t-45.5 -33.5t-58 -19l-10 62q20 6 34.5 15.5t24.5 22t14.5 29.5t4.5 39v349q0 24 -7 43t-21 32.5t-34.5 21t-46.5 7.5q-18 0 -32.5 -1.5t-27.5 -4t-26.5 -7t-30.5 -10.5v-402h-76v486l73 6v-33q18 9 33.5 16t31.5 11.5t33 6.5
t36 2q41 0 73 -11t54 -32t33 -52t11 -71z"/>
      <glyph glyph-name="Omacron" unicode="&#x14c;" horiz-adv-x="667"
             d="M53 0zM53 323q0 80 22 144t61.5 108.5t92 67t113.5 22.5q58 0 107.5 -21t86.5 -63t57 -104.5t20 -143.5q0 -80 -21.5 -144t-61 -108.5t-91.5 -67t-113 -22.5q-59 0 -108.5 21t-86.5 63t-57.5 104.5t-20.5 143.5zM136 333q0 -73 15 -125t42 -84.5t62.5 -47t77.5 -14.5
q38 0 73 14.5t63 45.5t45 81.5t17 119.5q0 73 -15 125.5t-42 84.5t-62.5 46.5t-77.5 14.5q-38 0 -73 -14.5t-63 -45.5t-45 -81.5t-17 -119.5zM213 734v57h241v-57h-241z"/>
      <glyph glyph-name="omacron" unicode="&#x14d;" horiz-adv-x="542"
             d="M50 0zM492 250q0 -59 -18 -107.5t-49.5 -82.5t-73 -51.5t-87.5 -17.5q-49 0 -88.5 15.5t-67.5 47t-43 78t-15 106.5q0 59 18 108t49.5 82.5t72.5 51.5t87 18q49 0 89 -16t68 -47t43 -77.5t15 -107.5zM413 247q0 45 -9.5 79.5t-28 57.5t-45 34.5t-60.5 11.5
q-31 0 -57 -12.5t-45 -37t-29 -59.5t-10 -79q0 -45 9.5 -79.5t28 -57.5t45 -34.5t60.5 -11.5q31 0 57 13t45 37.5t29 59.5t10 78zM151 564v57h241v-57h-241z"/>
      <glyph glyph-name="Obreve" unicode="&#x14e;" horiz-adv-x="667"
             d="M53 0zM53 323q0 80 22 144t61.5 108.5t92 67t113.5 22.5q58 0 107.5 -21t86.5 -63t57 -104.5t20 -143.5q0 -80 -21.5 -144t-61 -108.5t-91.5 -67t-113 -22.5q-59 0 -108.5 21t-86.5 63t-57.5 104.5t-20.5 143.5zM136 333q0 -73 15 -125t42 -84.5t62.5 -47t77.5 -14.5
q38 0 73 14.5t63 45.5t45 81.5t17 119.5q0 73 -15 125.5t-42 84.5t-62.5 46.5t-77.5 14.5q-38 0 -73 -14.5t-63 -45.5t-45 -81.5t-17 -119.5zM337 721h-8q-29 0 -53 9.5t-41.5 28t-26.5 46t-9 61.5h68q0 -22 5 -39t13.5 -28.5t19.5 -17.5t24 -6h14q12 0 24 6t21 18t14 29
t5 38h61q0 -34 -10 -61t-27.5 -46t-41.5 -28.5t-52 -9.5z"/>
      <glyph glyph-name="obreve" unicode="&#x14f;" horiz-adv-x="542"
             d="M50 0zM492 250q0 -59 -18 -107.5t-49.5 -82.5t-73 -51.5t-87.5 -17.5q-49 0 -88.5 15.5t-67.5 47t-43 78t-15 106.5q0 59 18 108t49.5 82.5t72.5 51.5t87 18q49 0 89 -16t68 -47t43 -77.5t15 -107.5zM413 247q0 45 -9.5 79.5t-28 57.5t-45 34.5t-60.5 11.5
q-31 0 -57 -12.5t-45 -37t-29 -59.5t-10 -79q0 -45 9.5 -79.5t28 -57.5t45 -34.5t60.5 -11.5q31 0 57 13t45 37.5t29 59.5t10 78zM275 551h-8q-29 0 -53 9.5t-41.5 28t-26.5 46t-9 61.5h68q0 -22 5 -39t13.5 -28.5t19.5 -17.5t24 -6h14q12 0 24 6t21 18t14 29t5 38h61
q0 -34 -10 -61t-27.5 -46t-41.5 -28.5t-52 -9.5z"/>
      <glyph glyph-name="Ohungarumlaut" unicode="&#x150;" horiz-adv-x="667"
             d="M53 0zM53 323q0 80 22 144t61.5 108.5t92 67t113.5 22.5q58 0 107.5 -21t86.5 -63t57 -104.5t20 -143.5q0 -80 -21.5 -144t-61 -108.5t-91.5 -67t-113 -22.5q-59 0 -108.5 21t-86.5 63t-57.5 104.5t-20.5 143.5zM136 333q0 -73 15 -125t42 -84.5t62.5 -47t77.5 -14.5
q38 0 73 14.5t63 45.5t45 81.5t17 119.5q0 73 -15 125.5t-42 84.5t-62.5 46.5t-77.5 14.5q-38 0 -73 -14.5t-63 -45.5t-45 -81.5t-17 -119.5zM368 721l111 145h82l-128 -145h-65zM211 721l111 145h82l-128 -145h-65z"/>
      <glyph glyph-name="ohungarumlaut" unicode="&#x151;" horiz-adv-x="542"
             d="M50 0zM492 250q0 -59 -18 -107.5t-49.5 -82.5t-73 -51.5t-87.5 -17.5q-49 0 -88.5 15.5t-67.5 47t-43 78t-15 106.5q0 59 18 108t49.5 82.5t72.5 51.5t87 18q49 0 89 -16t68 -47t43 -77.5t15 -107.5zM413 247q0 45 -9.5 79.5t-28 57.5t-45 34.5t-60.5 11.5
q-31 0 -57 -12.5t-45 -37t-29 -59.5t-10 -79q0 -45 9.5 -79.5t28 -57.5t45 -34.5t60.5 -11.5q31 0 57 13t45 37.5t29 59.5t10 78zM305 551l111 145h82l-128 -145h-65zM148 551l111 145h82l-128 -145h-65z"/>
      <glyph glyph-name="OE" unicode="&#x152;" horiz-adv-x="896"
             d="M136 333q0 -73 15 -125t42 -84.5t62.5 -47t77.5 -14.5q24 0 47.5 5.5t46.5 17t42.5 29t34.5 41.5v349q-14 23 -33 40t-41 28t-46 16.5t-50 5.5q-38 0 -73 -14.5t-63 -45.5t-45 -81.5t-17 -119.5zM504 0v57q-18 -16 -38 -28.5t-42.5 -21t-47 -12.5t-50.5 -4
q-59 0 -108.5 21t-86.5 63t-57.5 104.5t-20.5 143.5q0 80 22 144t61.5 108.5t92 67t113.5 22.5q24 0 46 -3.5t42.5 -10.5t39 -18t34.5 -25v48h324v-69h-245v-215h221v-69h-221v-234h248v-69h-327z"/>
      <glyph glyph-name="oe" unicode="&#x153;" horiz-adv-x="836"
             d="M481 303h230q0 32 -7 57t-21 41.5t-34.5 24.5t-46.5 8q-23 0 -43 -9t-36.5 -26t-27 -41.5t-14.5 -54.5zM407 247q0 45 -9.5 79.5t-27.5 57.5t-44 34.5t-59 11.5q-31 0 -56 -12.5t-43.5 -37t-28.5 -59.5t-10 -79q0 -45 9.5 -79.5t27.5 -57.5t44 -34.5t59 -11.5
q30 0 55.5 13t44 37.5t28.5 59.5t10 78zM274 498q28 0 53.5 -5.5t47 -16.5t39.5 -27t31 -38q14 22 32 38t38.5 27t43.5 16.5t47 5.5q44 0 78.5 -12.5t58.5 -37.5t36.5 -61.5t12.5 -84.5v-14.5t-0.5 -14.5t-1 -14.5t-0.5 -16.5h-312q0 -46 11.5 -80t32 -56t49.5 -32.5
t64 -10.5q21 0 39.5 2t36.5 5.5t36 9.5t37 14l-1 -68q-20 -9 -38 -14.5t-36 -9.5t-38.5 -6t-44.5 -2q-31 0 -58.5 5.5t-51 17t-43.5 29t-34 41.5q-15 -23 -35 -41t-43 -30t-48 -18.5t-52 -6.5q-48 0 -87 15.5t-66.5 47t-42.5 78t-15 106.5q0 59 17.5 108t49 82.5t72 51.5
t85.5 18z"/>
      <glyph glyph-name="Racute" unicode="&#x154;" horiz-adv-x="565"
             d="M98 0zM177 589v-248h92q33 0 59.5 7.5t45.5 23.5t29 40t10 56q0 30 -9 52.5t-27.5 37.5t-46 23t-65.5 8h-88zM177 274v-274h-79v656h172q54 0 96 -12.5t71 -35.5t43.5 -55.5t14.5 -73.5q0 -34 -8.5 -64t-25 -53.5t-40 -41t-53.5 -28.5l174 -292h-92l-160 274h-113z
M238 721l98 145h87l-119 -145h-66z"/>
      <glyph glyph-name="racute" unicode="&#x155;" horiz-adv-x="331"
             d="M80 0zM316 488l-9 -75q-8 2 -15 3.5t-13.5 2.5t-13 1.5t-14.5 0.5q-12 0 -23.5 -3t-22.5 -9t-23 -15.5t-26 -23.5v-370h-76v486l75 6v-57q14 16 27 27.5t25.5 18.5t25.5 10.5t26 3.5q8 0 15 -0.5t13.5 -1t13.5 -2t15 -3.5zM163 552l98 145h87l-119 -145h-66z"/>
      <glyph glyph-name="Rcommaaccent" unicode="&#x156;" horiz-adv-x="565"
             d="M98 0zM177 589v-248h92q33 0 59.5 7.5t45.5 23.5t29 40t10 56q0 30 -9 52.5t-27.5 37.5t-46 23t-65.5 8h-88zM177 274v-274h-79v656h172q54 0 96 -12.5t71 -35.5t43.5 -55.5t14.5 -73.5q0 -34 -8.5 -64t-25 -53.5t-40 -41t-53.5 -28.5l174 -292h-92l-160 274h-113z
M258 -100q0 12 3.5 21.5t10 16.5t15.5 10.5t21 3.5q10 0 18.5 -3.5t14.5 -10.5t9.5 -16.5t3.5 -22.5q0 -15 -4.5 -34.5t-13 -39.5t-19 -37.5t-21.5 -29.5h-36l26 94q-7 4 -12 8t-8.5 10t-5.5 13.5t-2 16.5z"/>
      <glyph glyph-name="rcommaaccent" unicode="&#x157;" horiz-adv-x="331"
             d="M70 0zM316 488l-9 -75q-8 2 -15 3.5t-13.5 2.5t-13 1.5t-14.5 0.5q-12 0 -23.5 -3t-22.5 -9t-23 -15.5t-26 -23.5v-370h-76v486l75 6v-57q14 16 27 27.5t25.5 18.5t25.5 10.5t26 3.5q8 0 15 -0.5t13.5 -1t13.5 -2t15 -3.5zM70 -99q0 12 3.5 21t10 16t15.5 10.5t20 3.5
q10 0 18 -3.5t14 -10t9.5 -16.5t3.5 -22q0 -15 -4.5 -33t-12.5 -36t-18.5 -34.5t-21.5 -28.5h-35l25 86q-6 3 -11 8t-8.5 10.5t-5.5 12.5t-2 16z"/>
      <glyph glyph-name="Rcaron" unicode="&#x158;" horiz-adv-x="565"
             d="M98 0zM177 589v-248h92q33 0 59.5 7.5t45.5 23.5t29 40t10 56q0 30 -9 52.5t-27.5 37.5t-46 23t-65.5 8h-88zM177 274v-274h-79v656h172q54 0 96 -12.5t71 -35.5t43.5 -55.5t14.5 -73.5q0 -34 -8.5 -64t-25 -53.5t-40 -41t-53.5 -28.5l174 -292h-92l-160 274h-113z
M421 866l-103 -145h-82l-98 145h76l60 -88h16l61 88h70z"/>
      <glyph glyph-name="rcaron" unicode="&#x159;" horiz-adv-x="331"
             d="M57 0zM316 488l-9 -75q-8 2 -15 3.5t-13.5 2.5t-13 1.5t-14.5 0.5q-12 0 -23.5 -3t-22.5 -9t-23 -15.5t-26 -23.5v-370h-76v486l75 6v-57q14 16 27 27.5t25.5 18.5t25.5 10.5t26 3.5q8 0 15 -0.5t13.5 -1t13.5 -2t15 -3.5zM340 697l-103 -145h-82l-98 145h76l60 -88h16
l61 88h70z"/>
      <glyph glyph-name="Sacute" unicode="&#x15a;" horiz-adv-x="500"
             d="M53 0zM53 8v73q23 -5 42.5 -8.5t38.5 -5.5t37.5 -3t38.5 -1q35 0 64 8.5t49.5 23.5t31 36.5t10.5 47.5q0 21 -5.5 37t-18 29.5t-32 24.5t-47.5 21l-81 28q-27 9 -49 23.5t-38 34t-24.5 44t-8.5 53.5q0 41 16 75.5t46 59.5t72 39t94 14q19 0 36.5 -0.5t33.5 -2t31.5 -4
t30.5 -5.5l-8 -70q-17 3 -32 5.5t-30.5 4t-32 2.5t-34.5 1q-34 0 -61 -8t-45.5 -22t-28 -33t-9.5 -42q0 -20 5 -35t16 -27t27.5 -21.5t40.5 -17.5l84 -28q34 -11 58.5 -26.5t40.5 -36t24 -46t8 -57.5q0 -44 -17 -81t-48.5 -63.5t-76 -40.5t-98.5 -14q-21 0 -40 1t-37.5 2.5
t-36.5 4t-37 6.5zM212 721l98 145h87l-119 -145h-66z"/>
      <glyph glyph-name="sacute" unicode="&#x15b;" horiz-adv-x="404"
             d="M41 0zM41 10v70q17 -5 34 -8.5t34.5 -5.5t35.5 -3t37 -1q26 0 46 5.5t34 15t21 23t7 29.5q0 14 -4.5 25.5t-14.5 20.5t-25.5 16.5t-37.5 13.5l-57 17q-25 7 -44.5 18.5t-32.5 27t-20 35.5t-7 44q0 30 12.5 56t36 45.5t56.5 30t73 10.5q17 0 32.5 -0.5t30 -2t28.5 -3.5
t27 -5l-8 -67q-15 3 -28.5 5t-27 3t-27.5 1.5t-31 0.5q-24 0 -43 -5t-32 -14t-19.5 -21.5t-6.5 -26.5t4 -24.5t12.5 -18.5t21.5 -14.5t31 -11.5l57 -15q30 -8 52 -20t37 -27.5t22 -35t7 -42.5q0 -34 -13.5 -63t-38 -50t-59 -32.5t-75.5 -11.5q-21 0 -39 1t-34.5 3t-32 5
t-31.5 7zM167 552l98 145h87l-119 -145h-66z"/>
      <glyph glyph-name="Scircumflex" unicode="&#x15c;" horiz-adv-x="500"
             d="M53 0zM53 8v73q23 -5 42.5 -8.5t38.5 -5.5t37.5 -3t38.5 -1q35 0 64 8.5t49.5 23.5t31 36.5t10.5 47.5q0 21 -5.5 37t-18 29.5t-32 24.5t-47.5 21l-81 28q-27 9 -49 23.5t-38 34t-24.5 44t-8.5 53.5q0 41 16 75.5t46 59.5t72 39t94 14q19 0 36.5 -0.5t33.5 -2t31.5 -4
t30.5 -5.5l-8 -70q-17 3 -32 5.5t-30.5 4t-32 2.5t-34.5 1q-34 0 -61 -8t-45.5 -22t-28 -33t-9.5 -42q0 -20 5 -35t16 -27t27.5 -21.5t40.5 -17.5l84 -28q34 -11 58.5 -26.5t40.5 -36t24 -46t8 -57.5q0 -44 -17 -81t-48.5 -63.5t-76 -40.5t-98.5 -14q-21 0 -40 1t-37.5 2.5
t-36.5 4t-37 6.5zM108 721l103 145h81l99 -145h-76l-60 88h-16l-61 -88h-70z"/>
      <glyph glyph-name="scircumflex" unicode="&#x15d;" horiz-adv-x="404"
             d="M41 0zM41 10v70q17 -5 34 -8.5t34.5 -5.5t35.5 -3t37 -1q26 0 46 5.5t34 15t21 23t7 29.5q0 14 -4.5 25.5t-14.5 20.5t-25.5 16.5t-37.5 13.5l-57 17q-25 7 -44.5 18.5t-32.5 27t-20 35.5t-7 44q0 30 12.5 56t36 45.5t56.5 30t73 10.5q17 0 32.5 -0.5t30 -2t28.5 -3.5
t27 -5l-8 -67q-15 3 -28.5 5t-27 3t-27.5 1.5t-31 0.5q-24 0 -43 -5t-32 -14t-19.5 -21.5t-6.5 -26.5t4 -24.5t12.5 -18.5t21.5 -14.5t31 -11.5l57 -15q30 -8 52 -20t37 -27.5t22 -35t7 -42.5q0 -34 -13.5 -63t-38 -50t-59 -32.5t-75.5 -11.5q-21 0 -39 1t-34.5 3t-32 5
t-31.5 7zM62 552l103 145h81l99 -145h-76l-60 88h-16l-61 -88h-70z"/>
      <glyph glyph-name="uni015E" unicode="&#x15e;" horiz-adv-x="500"
             d="M53 0zM53 8v73q23 -5 42.5 -8.5t38.5 -5.5t37.5 -3t38.5 -1q35 0 64 8.5t49.5 23.5t31 36.5t10.5 47.5q0 21 -5.5 37t-18 29.5t-32 24.5t-47.5 21l-81 28q-27 9 -49 23.5t-38 34t-24.5 44t-8.5 53.5q0 41 16 75.5t46 59.5t72 39t94 14q19 0 36.5 -0.5t33.5 -2t31.5 -4
t30.5 -5.5l-8 -70q-17 3 -32 5.5t-30.5 4t-32 2.5t-34.5 1q-34 0 -61 -8t-45.5 -22t-28 -33t-9.5 -42q0 -20 5 -35t16 -27t27.5 -21.5t40.5 -17.5l84 -28q34 -11 58.5 -26.5t40.5 -36t24 -46t8 -57.5q0 -44 -17 -81t-48.5 -63.5t-76 -40.5t-98.5 -14q-21 0 -40 1t-37.5 2.5
t-36.5 4t-37 6.5zM176 -30l58 -5q26 -2 44.5 -7t30 -13.5t16.5 -19.5t5 -25q0 -19 -10 -36t-29 -29t-45.5 -19t-59.5 -7h-51v55h52q19 0 33 2t22.5 5.5t12.5 8.5t4 11q0 5 -2.5 9t-9 7.5t-18.5 6t-30 4.5l-23 3v49z"/>
      <glyph glyph-name="uni015F" unicode="&#x15f;" horiz-adv-x="404"
             d="M41 0zM41 10v70q17 -5 34 -8.5t34.5 -5.5t35.5 -3t37 -1q26 0 46 5.5t34 15t21 23t7 29.5q0 14 -4.5 25.5t-14.5 20.5t-25.5 16.5t-37.5 13.5l-57 17q-25 7 -44.5 18.5t-32.5 27t-20 35.5t-7 44q0 30 12.5 56t36 45.5t56.5 30t73 10.5q17 0 32.5 -0.5t30 -2t28.5 -3.5
t27 -5l-8 -67q-15 3 -28.5 5t-27 3t-27.5 1.5t-31 0.5q-24 0 -43 -5t-32 -14t-19.5 -21.5t-6.5 -26.5t4 -24.5t12.5 -18.5t21.5 -14.5t31 -11.5l57 -15q30 -8 52 -20t37 -27.5t22 -35t7 -42.5q0 -34 -13.5 -63t-38 -50t-59 -32.5t-75.5 -11.5q-21 0 -39 1t-34.5 3t-32 5
t-31.5 7zM157 -32l57 -4q20 -1 36 -6t26.5 -13.5t15.5 -19.5t5 -25q0 -20 -8.5 -36.5t-26 -29t-43.5 -19t-59 -6.5h-45v52h46q18 0 31 2t21.5 6t12.5 9.5t4 11.5q0 5 -3 10t-9.5 9t-17 7t-24.5 4l-19 2v46z"/>
      <glyph glyph-name="Scaron" unicode="&#x160;" horiz-adv-x="500"
             d="M53 0zM53 8v73q23 -5 42.5 -8.5t38.5 -5.5t37.5 -3t38.5 -1q35 0 64 8.5t49.5 23.5t31 36.5t10.5 47.5q0 21 -5.5 37t-18 29.5t-32 24.5t-47.5 21l-81 28q-27 9 -49 23.5t-38 34t-24.5 44t-8.5 53.5q0 41 16 75.5t46 59.5t72 39t94 14q19 0 36.5 -0.5t33.5 -2t31.5 -4
t30.5 -5.5l-8 -70q-17 3 -32 5.5t-30.5 4t-32 2.5t-34.5 1q-34 0 -61 -8t-45.5 -22t-28 -33t-9.5 -42q0 -20 5 -35t16 -27t27.5 -21.5t40.5 -17.5l84 -28q34 -11 58.5 -26.5t40.5 -36t24 -46t8 -57.5q0 -44 -17 -81t-48.5 -63.5t-76 -40.5t-98.5 -14q-21 0 -40 1t-37.5 2.5
t-36.5 4t-37 6.5zM391 866l-103 -145h-82l-98 145h76l60 -88h16l61 88h70z"/>
      <glyph glyph-name="scaron" unicode="&#x161;" horiz-adv-x="404"
             d="M41 0zM41 10v70q17 -5 34 -8.5t34.5 -5.5t35.5 -3t37 -1q26 0 46 5.5t34 15t21 23t7 29.5q0 14 -4.5 25.5t-14.5 20.5t-25.5 16.5t-37.5 13.5l-57 17q-25 7 -44.5 18.5t-32.5 27t-20 35.5t-7 44q0 30 12.5 56t36 45.5t56.5 30t73 10.5q17 0 32.5 -0.5t30 -2t28.5 -3.5
t27 -5l-8 -67q-15 3 -28.5 5t-27 3t-27.5 1.5t-31 0.5q-24 0 -43 -5t-32 -14t-19.5 -21.5t-6.5 -26.5t4 -24.5t12.5 -18.5t21.5 -14.5t31 -11.5l57 -15q30 -8 52 -20t37 -27.5t22 -35t7 -42.5q0 -34 -13.5 -63t-38 -50t-59 -32.5t-75.5 -11.5q-21 0 -39 1t-34.5 3t-32 5
t-31.5 7zM345 697l-103 -145h-82l-98 145h76l60 -88h16l61 88h70z"/>
      <glyph glyph-name="uni0162" unicode="&#x162;" horiz-adv-x="525"
             d="M31 0zM302 587v-587h-79v587h-192v69h463v-69h-192zM223 -30l58 -5q26 -2 44.5 -7t30 -13.5t16.5 -19.5t5 -25q0 -19 -10 -36t-29 -29t-45.5 -19t-59.5 -7h-51v55h52q19 0 33 2t22.5 5.5t12.5 8.5t4 11q0 5 -2.5 9t-9 7.5t-18.5 6t-30 4.5l-23 3v49z"/>
      <glyph glyph-name="uni0163" unicode="&#x163;" horiz-adv-x="332"
             d="M36 0zM36 427v62h59v86l75 11v-97h128v-62h-128v-275q0 -23 5.5 -40t16 -28t24.5 -16.5t31 -5.5q9 0 17 0.5t15.5 1.5t16 2.5t17.5 3.5v-65q-12 -3 -22.5 -5t-20.5 -3.5t-20 -2t-22 -0.5q-29 0 -52.5 8t-42 26t-28.5 47.5t-10 71.5v280h-59zM138 -32l57 -4q20 -1 36 -6
t26.5 -13.5t15.5 -19.5t5 -25q0 -20 -8.5 -36.5t-26 -29t-43.5 -19t-59 -6.5h-45v52h46q18 0 31 2t21.5 6t12.5 9.5t4 11.5q0 5 -3 10t-9.5 9t-17 7t-24.5 4l-19 2v46z"/>
      <glyph glyph-name="Tcaron" unicode="&#x164;" horiz-adv-x="525"
             d="M31 0zM302 587v-587h-79v587h-192v69h463v-69h-192zM405 866l-103 -145h-82l-98 145h76l60 -88h16l61 88h70z"/>
      <glyph glyph-name="tcaron" unicode="&#x165;" horiz-adv-x="332"
             d="M36 0zM36 427v62h59v86l75 11v-97h128v-62h-128v-275q0 -23 5.5 -40t16 -28t24.5 -16.5t31 -5.5q9 0 17 0.5t15.5 1.5t16 2.5t17.5 3.5v-65q-12 -3 -22.5 -5t-20.5 -3.5t-20 -2t-22 -0.5q-29 0 -52.5 8t-42 26t-28.5 47.5t-10 71.5v280h-59zM212 665q0 12 3.5 21t10 16
t15.5 10.5t20 3.5q10 0 18 -3.5t14 -10t9.5 -16.5t3.5 -22q0 -15 -4.5 -33t-12.5 -36t-18.5 -34.5t-21.5 -28.5h-35l25 86q-6 3 -11 8t-8.5 10.5t-5.5 12.5t-2 16z"/>
      <glyph glyph-name="Tbar" unicode="&#x166;" horiz-adv-x="525"
             d="M302 587v-182h132v-58h-132v-347h-79v347h-132v58h132v182h-192v69h463v-69h-192z"/>
      <glyph glyph-name="tbar" unicode="&#x167;" horiz-adv-x="332"
             d="M36 427v62h59v86l75 11v-97h128v-62h-128v-116h128v-58h-128v-101q0 -23 5.5 -40t16 -28t24.5 -16.5t31 -5.5q9 0 17 0.5t15.5 1.5t16 2.5t17.5 3.5v-65q-12 -3 -22.5 -5t-20.5 -3.5t-20 -2t-22 -0.5q-29 0 -52.5 8t-42 26t-28.5 47.5t-10 71.5v106h-59v58h59v116h-59z
"/>
      <glyph glyph-name="Utilde" unicode="&#x168;" horiz-adv-x="649"
             d="M92 0zM319 -7q-56 0 -98 14.5t-71 43.5t-43.5 72.5t-14.5 101.5v431h79v-421q0 -46 9 -78t28 -52.5t48 -30.5t70 -10q37 0 65.5 10.5t48 31.5t29.5 52t10 71v427h77v-424q0 -57 -16.5 -101.5t-47.5 -75t-75 -46.5t-98 -16zM455 816l23 -46q-9 -13 -18 -23t-20 -17.5
t-24.5 -11t-29.5 -3.5t-32 7.5t-38.5 22.5t-34.5 21.5t-23 6.5q-8 0 -16.5 -2.5t-17 -7t-17 -12t-15.5 -16.5l-23 46q9 13 20.5 23.5t24 18t26 11.5t27.5 4q18 0 34.5 -7.5t38.5 -22.5t33 -21.5t22 -6.5q8 0 16 2.5t15.5 7t15 11t13.5 15.5z"/>
      <glyph glyph-name="utilde" unicode="&#x169;" horiz-adv-x="527"
             d="M73 0zM149 492v-323q0 -25 7 -45t20.5 -33t33.5 -20t46 -7q18 0 32 1.5t26.5 4.5t25.5 7.5t31 11.5v397l76 6v-492h-74v30q-16 -10 -31 -16.5t-30.5 -11t-32.5 -7t-36 -2.5q-42 0 -73.5 10.5t-53 32t-32.5 52.5t-11 72v326zM391 657l23 -46q-9 -13 -18 -23t-20 -17.5
t-24.5 -11t-29.5 -3.5t-32 7.5t-38.5 22.5t-34.5 21.5t-23 6.5q-8 0 -16.5 -2.5t-17 -7t-17 -12t-15.5 -16.5l-23 46q9 13 20.5 23.5t24 18t26 11.5t27.5 4q18 0 34.5 -7.5t38.5 -22.5t33 -21.5t22 -6.5q8 0 16 2.5t15.5 7t15 11t13.5 15.5z"/>
      <glyph glyph-name="Umacron" unicode="&#x16a;" horiz-adv-x="649"
             d="M92 0zM319 -7q-56 0 -98 14.5t-71 43.5t-43.5 72.5t-14.5 101.5v431h79v-421q0 -46 9 -78t28 -52.5t48 -30.5t70 -10q37 0 65.5 10.5t48 31.5t29.5 52t10 71v427h77v-424q0 -57 -16.5 -101.5t-47.5 -75t-75 -46.5t-98 -16zM204 734v57h241v-57h-241z"/>
      <glyph glyph-name="umacron" unicode="&#x16b;" horiz-adv-x="527"
             d="M73 0zM149 492v-323q0 -25 7 -45t20.5 -33t33.5 -20t46 -7q18 0 32 1.5t26.5 4.5t25.5 7.5t31 11.5v397l76 6v-492h-74v30q-16 -10 -31 -16.5t-30.5 -11t-32.5 -7t-36 -2.5q-42 0 -73.5 10.5t-53 32t-32.5 52.5t-11 72v326zM140 564v57h241v-57h-241z"/>
      <glyph glyph-name="Ubreve" unicode="&#x16c;" horiz-adv-x="649"
             d="M92 0zM319 -7q-56 0 -98 14.5t-71 43.5t-43.5 72.5t-14.5 101.5v431h79v-421q0 -46 9 -78t28 -52.5t48 -30.5t70 -10q37 0 65.5 10.5t48 31.5t29.5 52t10 71v427h77v-424q0 -57 -16.5 -101.5t-47.5 -75t-75 -46.5t-98 -16zM328 721h-8q-29 0 -53 9.5t-41.5 28t-26.5 46
t-9 61.5h68q0 -22 5 -39t13.5 -28.5t19.5 -17.5t24 -6h14q12 0 24 6t21 18t14 29t5 38h61q0 -34 -10 -61t-27.5 -46t-41.5 -28.5t-52 -9.5z"/>
      <glyph glyph-name="ubreve" unicode="&#x16d;" horiz-adv-x="527"
             d="M73 0zM149 492v-323q0 -25 7 -45t20.5 -33t33.5 -20t46 -7q18 0 32 1.5t26.5 4.5t25.5 7.5t31 11.5v397l76 6v-492h-74v30q-16 -10 -31 -16.5t-30.5 -11t-32.5 -7t-36 -2.5q-42 0 -73.5 10.5t-53 32t-32.5 52.5t-11 72v326zM264 551h-8q-29 0 -53 9.5t-41.5 28t-26.5 46
t-9 61.5h68q0 -22 5 -39t13.5 -28.5t19.5 -17.5t24 -6h14q12 0 24 6t21 18t14 29t5 38h61q0 -34 -10 -61t-27.5 -46t-41.5 -28.5t-52 -9.5z"/>
      <glyph glyph-name="Uring" unicode="&#x16e;" horiz-adv-x="649"
             d="M92 0zM319 -7q-56 0 -98 14.5t-71 43.5t-43.5 72.5t-14.5 101.5v431h79v-421q0 -46 9 -78t28 -52.5t48 -30.5t70 -10q37 0 65.5 10.5t48 31.5t29.5 52t10 71v427h77v-424q0 -57 -16.5 -101.5t-47.5 -75t-75 -46.5t-98 -16zM241 793q0 17 6.5 32t18 26t27 17.5t32.5 6.5
t32 -6t26.5 -17.5t18 -26.5t6.5 -32t-6.5 -32.5t-18 -27t-26.5 -18t-32 -6.5t-32.5 6.5t-27 18t-18 27t-6.5 32.5zM284 793q0 -9 3 -17t9 -13.5t13.5 -9t15.5 -3.5t15 3.5t13 9t9 13.5t3 17q0 8 -3 15.5t-9 13.5t-13 9.5t-15 3.5t-15.5 -3.5t-13.5 -9.5t-9 -13.5t-3 -15.5z
"/>
      <glyph glyph-name="uring" unicode="&#x16f;" horiz-adv-x="527"
             d="M73 0zM149 492v-323q0 -25 7 -45t20.5 -33t33.5 -20t46 -7q18 0 32 1.5t26.5 4.5t25.5 7.5t31 11.5v397l76 6v-492h-74v30q-16 -10 -31 -16.5t-30.5 -11t-32.5 -7t-36 -2.5q-42 0 -73.5 10.5t-53 32t-32.5 52.5t-11 72v326zM177 624q0 17 6.5 32t18 26t27 17.5t32.5 6.5
t32 -6t26.5 -17.5t18 -26.5t6.5 -32t-6.5 -32.5t-18 -27t-26.5 -18t-32 -6.5t-32.5 6.5t-27 18t-18 27t-6.5 32.5zM220 624q0 -9 3 -17t9 -13.5t13.5 -9t15.5 -3.5t15 3.5t13 9t9 13.5t3 17q0 8 -3 15.5t-9 13.5t-13 9.5t-15 3.5t-15.5 -3.5t-13.5 -9.5t-9 -13.5t-3 -15.5z
"/>
      <glyph glyph-name="Uhungarumlaut" unicode="&#x170;" horiz-adv-x="649"
             d="M92 0zM319 -7q-56 0 -98 14.5t-71 43.5t-43.5 72.5t-14.5 101.5v431h79v-421q0 -46 9 -78t28 -52.5t48 -30.5t70 -10q37 0 65.5 10.5t48 31.5t29.5 52t10 71v427h77v-424q0 -57 -16.5 -101.5t-47.5 -75t-75 -46.5t-98 -16zM358 721l111 145h82l-128 -145h-65zM201 721
l111 145h82l-128 -145h-65z"/>
      <glyph glyph-name="uhungarumlaut" unicode="&#x171;" horiz-adv-x="527"
             d="M73 0zM149 492v-323q0 -25 7 -45t20.5 -33t33.5 -20t46 -7q18 0 32 1.5t26.5 4.5t25.5 7.5t31 11.5v397l76 6v-492h-74v30q-16 -10 -31 -16.5t-30.5 -11t-32.5 -7t-36 -2.5q-42 0 -73.5 10.5t-53 32t-32.5 52.5t-11 72v326zM294 551l111 145h82l-128 -145h-65zM137 551
l111 145h82l-128 -145h-65z"/>
      <glyph glyph-name="Uogonek" unicode="&#x172;" horiz-adv-x="649"
             d="M556 656v-424q0 -48 -11.5 -87t-34 -68.5t-53.5 -48.5t-70 -28q-21 -13 -37 -26t-26 -25.5t-15 -24.5t-5 -23q0 -9 2.5 -16t8 -11.5t13.5 -7t18 -2.5q8 0 15.5 0.5t15.5 2t15.5 3t15.5 4.5v-51q-7 -4 -15.5 -6.5t-17.5 -4t-18.5 -2.5t-19.5 -1q-27 0 -47 5.5t-33 15.5
t-19.5 25.5t-6.5 35.5q0 12 4.5 25.5t14 27t23 26.5t30.5 24q-51 2 -90.5 17t-66 44t-40.5 71.5t-14 98.5v431h79v-421q0 -46 9 -78t28 -52.5t48 -30.5t70 -10q37 0 65.5 10.5t48 31.5t29.5 52t10 71v427h77z"/>
      <glyph glyph-name="uogonek" unicode="&#x173;" horiz-adv-x="527"
             d="M376 0h-2v32q-17 -10 -32 -17.5t-30.5 -12t-32.5 -7t-36 -2.5q-42 0 -73.5 10.5t-53 32t-32.5 52.5t-11 72v326l76 6v-323q0 -25 7 -45t20.5 -33t33.5 -20t46 -7q18 0 32 1.5t26.5 4.5t25.5 7.5t31 11.5v397l76 6v-492q-22 -15 -37 -28t-25 -25t-14.5 -23.5t-4.5 -22.5
q0 -9 3 -16t8.5 -11.5t13.5 -7t18 -2.5q8 0 15.5 0.5t15 2l15 3t15.5 4.5v-51q-7 -4 -15.5 -6.5t-17.5 -4t-18.5 -2.5t-19.5 -1q-27 0 -47 5.5t-33 15.5t-19.5 25.5t-6.5 35.5q0 13 5.5 27.5t16 28.5t26 27.5t35.5 25.5z"/>
      <glyph glyph-name="Wcircumflex" unicode="&#x174;" horiz-adv-x="869"
             d="M17 0zM200 0l-183 656h89l149 -577h5l139 405l-57 172h84l186 -577h5l152 577h83l-187 -656h-105l-123 381h-4l-128 -381h-105zM293 721l103 145h81l99 -145h-76l-60 88h-16l-61 -88h-70z"/>
      <glyph glyph-name="wcircumflex" unicode="&#x175;" horiz-adv-x="718"
             d="M16 0zM700 489l-154 -489h-97l-90 296h-5l-86 -296h-97l-155 489h87l119 -419h5l97 321l-32 98h84l124 -419h5l117 419h78zM216 552l103 145h81l99 -145h-76l-60 88h-16l-61 -88h-70z"/>
      <glyph glyph-name="Ycircumflex" unicode="&#x176;" horiz-adv-x="543"
             d="M17 0zM311 270v-270h-79v270l-215 386h95l164 -306h3l163 306h84zM130 721l103 145h81l99 -145h-76l-60 88h-16l-61 -88h-70z"/>
      <glyph glyph-name="ycircumflex" unicode="&#x177;" horiz-adv-x="452"
             d="M17 0zM185 19l-168 470h84l136 -404h4l117 404h77l-178 -555q-11 -36 -26.5 -61t-34.5 -40t-41.5 -22t-49.5 -7q-7 0 -14 0.5t-13.5 1t-12.5 1.5t-12 3v64q7 -1 13.5 -2t12 -1.5t11 -0.5h10.5q17 0 30.5 4.5t25 13.5t20 24t16.5 37l24 70h-31zM85 552l103 145h81l99 -145
h-76l-60 88h-16l-61 -88h-70z"/>
      <glyph glyph-name="Ydieresis" unicode="&#x178;" horiz-adv-x="543"
             d="M17 0zM311 270v-270h-79v270l-215 386h95l164 -306h3l163 306h84zM303 763q0 11 3 20t9.5 15t15 9t18.5 3q11 0 19.5 -3t15 -9t9.5 -15t3 -20t-3 -20t-9.5 -15t-15 -9t-19.5 -3t-19.5 3t-14.5 9t-9 15t-3 20zM147 763q0 11 3 20t9 15t14.5 9t19.5 3t19.5 -3t14.5 -9
t9 -15t3 -20t-3 -20t-9 -15t-14.5 -9t-19.5 -3t-19.5 3t-14.5 9t-9 14.5t-3 20.5z"/>
      <glyph glyph-name="Zacute" unicode="&#x179;" horiz-adv-x="514"
             d="M43 0zM61 586v70h406v-72l-335 -510v-4h339v-70h-428v72l335 511v3h-317zM220 721l98 145h87l-119 -145h-66z"/>
      <glyph glyph-name="zacute" unicode="&#x17a;" horiz-adv-x="405"
             d="M30 0zM44 426v63h326v-63l-256 -359v-4h261v-63h-345v64l256 359v3h-242zM171 552l98 145h87l-119 -145h-66z"/>
      <glyph glyph-name="Zdotaccent" unicode="&#x17b;" horiz-adv-x="514"
             d="M43 0zM61 586v70h406v-72l-335 -510v-4h339v-70h-428v72l335 511v3h-317zM208 774q0 11 3.5 20t9.5 15t15 9.5t20 3.5t20 -3t15 -9.5t9.5 -15t3.5 -20.5q0 -11 -3.5 -20t-9.5 -15t-15 -9t-20 -3t-20 3t-15 9t-9.5 15t-3.5 20z"/>
      <glyph glyph-name="zdotaccent" unicode="&#x17c;" horiz-adv-x="405"
             d="M30 0zM44 426v63h326v-63l-256 -359v-4h261v-63h-345v64l256 359v3h-242zM158 604q0 11 3.5 20t9.5 15t15 9.5t20 3.5t20 -3t15 -9.5t9.5 -15t3.5 -20.5q0 -11 -3.5 -20t-9.5 -15t-15 -9t-20 -3t-20 3t-15 9t-9.5 15t-3.5 20z"/>
      <glyph glyph-name="Zcaron" unicode="&#x17d;" horiz-adv-x="514"
             d="M43 0zM61 586v70h406v-72l-335 -510v-4h339v-70h-428v72l335 511v3h-317zM399 866l-103 -145h-82l-98 145h76l60 -88h16l61 88h70z"/>
      <glyph glyph-name="zcaron" unicode="&#x17e;" horiz-adv-x="405"
             d="M30 0zM44 426v63h326v-63l-256 -359v-4h261v-63h-345v64l256 359v3h-242zM348 697l-103 -145h-82l-98 145h76l60 -88h16l61 88h70z"/>
      <glyph glyph-name="florin" unicode="&#x192;"
             d="M283 450h123l-7 -57h-120l-52 -566h-74l53 566h-81v57h85l6 58q3 36 17 64.5t36 48.5t50 30.5t61 10.5q11 0 20 -0.5l18 -1t18 -2t19 -3.5l-7 -60q-11 1 -20 2t-17.5 2t-17 1h-18.5q-17 0 -32 -5.5t-26.5 -17t-18.5 -29t-9 -39.5z"/>
      <glyph glyph-name="uni0218" unicode="&#x218;" horiz-adv-x="500"
             d="M53 0zM53 8v73q23 -5 42.5 -8.5t38.5 -5.5t37.5 -3t38.5 -1q35 0 64 8.5t49.5 23.5t31 36.5t10.5 47.5q0 21 -5.5 37t-18 29.5t-32 24.5t-47.5 21l-81 28q-27 9 -49 23.5t-38 34t-24.5 44t-8.5 53.5q0 41 16 75.5t46 59.5t72 39t94 14q19 0 36.5 -0.5t33.5 -2t31.5 -4
t30.5 -5.5l-8 -70q-17 3 -32 5.5t-30.5 4t-32 2.5t-34.5 1q-34 0 -61 -8t-45.5 -22t-28 -33t-9.5 -42q0 -20 5 -35t16 -27t27.5 -21.5t40.5 -17.5l84 -28q34 -11 58.5 -26.5t40.5 -36t24 -46t8 -57.5q0 -44 -17 -81t-48.5 -63.5t-76 -40.5t-98.5 -14q-21 0 -40 1t-37.5 2.5
t-36.5 4t-37 6.5zM195 -100q0 12 3.5 21.5t10 16.5t15.5 10.5t21 3.5q10 0 18.5 -3.5t14.5 -10.5t9.5 -16.5t3.5 -22.5q0 -15 -4.5 -34.5t-13 -39.5t-19 -37.5t-21.5 -29.5h-36l26 94q-7 4 -12 8t-8.5 10t-5.5 13.5t-2 16.5z"/>
      <glyph glyph-name="uni0219" unicode="&#x219;" horiz-adv-x="404"
             d="M41 0zM41 10v70q17 -5 34 -8.5t34.5 -5.5t35.5 -3t37 -1q26 0 46 5.5t34 15t21 23t7 29.5q0 14 -4.5 25.5t-14.5 20.5t-25.5 16.5t-37.5 13.5l-57 17q-25 7 -44.5 18.5t-32.5 27t-20 35.5t-7 44q0 30 12.5 56t36 45.5t56.5 30t73 10.5q17 0 32.5 -0.5t30 -2t28.5 -3.5
t27 -5l-8 -67q-15 3 -28.5 5t-27 3t-27.5 1.5t-31 0.5q-24 0 -43 -5t-32 -14t-19.5 -21.5t-6.5 -26.5t4 -24.5t12.5 -18.5t21.5 -14.5t31 -11.5l57 -15q30 -8 52 -20t37 -27.5t22 -35t7 -42.5q0 -34 -13.5 -63t-38 -50t-59 -32.5t-75.5 -11.5q-21 0 -39 1t-34.5 3t-32 5
t-31.5 7zM139 -99q0 12 3.5 21t10 16t15.5 10.5t20 3.5q10 0 18 -3.5t14 -10t9.5 -16.5t3.5 -22q0 -15 -4.5 -33t-12.5 -36t-18.5 -34.5t-21.5 -28.5h-35l25 86q-6 3 -11 8t-8.5 10.5t-5.5 12.5t-2 16z"/>
      <glyph glyph-name="uni021A" unicode="&#x21a;" horiz-adv-x="525"
             d="M31 0zM302 587v-587h-79v587h-192v69h463v-69h-192zM214 -100q0 12 3.5 21.5t10 16.5t15.5 10.5t21 3.5q10 0 18.5 -3.5t14.5 -10.5t9.5 -16.5t3.5 -22.5q0 -15 -4.5 -34.5t-13 -39.5t-19 -37.5t-21.5 -29.5h-36l26 94q-7 4 -12 8t-8.5 10t-5.5 13.5t-2 16.5z"/>
      <glyph glyph-name="uni021B" unicode="&#x21b;" horiz-adv-x="332"
             d="M36 0zM36 427v62h59v86l75 11v-97h128v-62h-128v-275q0 -23 5.5 -40t16 -28t24.5 -16.5t31 -5.5q9 0 17 0.5t15.5 1.5t16 2.5t17.5 3.5v-65q-12 -3 -22.5 -5t-20.5 -3.5t-20 -2t-22 -0.5q-29 0 -52.5 8t-42 26t-28.5 47.5t-10 71.5v280h-59zM139 -99q0 12 3.5 21t10 16
t15.5 10.5t20 3.5q10 0 18 -3.5t14 -10t9.5 -16.5t3.5 -22q0 -15 -4.5 -33t-12.5 -36t-18.5 -34.5t-21.5 -28.5h-35l25 86q-6 3 -11 8t-8.5 10.5t-5.5 12.5t-2 16z"/>
      <glyph glyph-name="uni0237" unicode="&#x237;" horiz-adv-x="236"
             d="M156 492v-520q0 -38 -10.5 -67t-30 -49.5t-45.5 -33t-58 -18.5l-10 65q20 6 34.5 15t24.5 21t14.5 28.5t4.5 38.5v514z"/>
      <glyph glyph-name="circumflex" unicode="&#x2c6;" horiz-adv-x="374"
             d="M44 551l103 145h81l99 -145h-76l-60 88h-16l-61 -88h-70z"/>
      <glyph glyph-name="caron" unicode="&#x2c7;" horiz-adv-x="362"
             d="M329 696l-103 -145h-82l-98 145h76l60 -88h16l61 88h70z"/>
      <glyph glyph-name="uni02C9" unicode="&#x2c9;" horiz-adv-x="397"
             d="M77 564v57h241v-57h-241z"/>
      <glyph glyph-name="breve" unicode="&#x2d8;" horiz-adv-x="427"
             d="M246 551h-8q-29 0 -53 9.5t-41.5 28t-26.5 46t-9 61.5h68q0 -22 5 -39t13.5 -28.5t19.5 -17.5t24 -6h14q12 0 24 6t21 18t14 29t5 38h61q0 -34 -10 -61t-27.5 -46t-41.5 -28.5t-52 -9.5z"/>
      <glyph glyph-name="dotaccent" unicode="&#x2d9;" horiz-adv-x="227"
             d="M70 604q0 11 3.5 20t9.5 15t15 9.5t20 3.5t20 -3t15 -9.5t9.5 -15t3.5 -20.5q0 -11 -3.5 -20t-9.5 -15t-15 -9t-20 -3t-20 3t-15 9t-9.5 15t-3.5 20z"/>
      <glyph glyph-name="ring" unicode="&#x2da;" horiz-adv-x="437"
             d="M149 623q0 17 6.5 32t18 26t27 17.5t32.5 6.5t32 -6t26.5 -17.5t18 -26.5t6.5 -32t-6.5 -32.5t-18 -27t-26.5 -18t-32 -6.5t-32.5 6.5t-27 18t-18 27t-6.5 32.5zM192 623q0 -9 3 -17t9 -13.5t13.5 -9t15.5 -3.5t15 3.5t13 9t9 13.5t3 17q0 8 -3 15.5t-9 13.5t-13 9.5
t-15 3.5t-15.5 -3.5t-13.5 -9.5t-9 -13.5t-3 -15.5z"/>
      <glyph glyph-name="ogonek" unicode="&#x2db;" horiz-adv-x="297"
             d="M138 0h71q-22 -15 -37 -28t-25 -25t-14.5 -23.5t-4.5 -22.5q0 -9 3 -16t8.5 -11.5t13.5 -7t18 -2.5q8 0 15.5 0.5t15 2l15 3t15.5 4.5v-51q-7 -4 -15.5 -6.5t-17.5 -4t-18.5 -2.5t-19.5 -1q-27 0 -47 5.5t-33 15.5t-19.5 25.5t-6.5 35.5q0 13 5.5 27.5t16 28.5t26 27.5
t35.5 25.5z"/>
      <glyph glyph-name="tilde" unicode="&#x2dc;" horiz-adv-x="396"
             d="M325 656l23 -46q-9 -13 -18 -23t-20 -17.5t-24.5 -11t-29.5 -3.5t-32 7.5t-38.5 22.5t-34.5 21.5t-23 6.5q-8 0 -16.5 -2.5t-17 -7t-17 -12t-15.5 -16.5l-23 46q9 13 20.5 23.5t24 18t26 11.5t27.5 4q18 0 34.5 -7.5t38.5 -22.5t33 -21.5t22 -6.5q8 0 16 2.5t15.5 7
t15 11t13.5 15.5z"/>
      <glyph glyph-name="hungarumlaut" unicode="&#x2dd;" horiz-adv-x="467"
             d="M236 551l111 145h82l-128 -145h-65zM79 551l111 145h82l-128 -145h-65z"/>
      <glyph glyph-name="uni0394" unicode="&#x394;" horiz-adv-x="612"
             d="M579 0h-550l261 658h42zM302 502l-169 -434h335l-161 434h-5z"/>
      <glyph glyph-name="uni03A9" unicode="&#x3a9;" horiz-adv-x="668"
             d="M379 0l-11 65q32 6 61 23.5t52 48t36.5 77.5t13.5 109q0 73 -15 125.5t-42 84.5t-62.5 46.5t-77.5 14.5q-38 0 -73 -14.5t-63 -45.5t-45 -81.5t-17 -119.5q0 -64 12 -112t34 -80t52 -50.5t66 -25.5l-12 -65h-245v66h109v4q-23 20 -40.5 44t-30.5 54.5t-20 69t-7 85.5
q0 80 22 144t61 108.5t91.5 67t113.5 22.5q58 0 107.5 -21t86.5 -63t57 -104.5t20 -143.5q0 -47 -8 -86.5t-22.5 -71.5t-35 -57.5t-47.5 -47.5v-4h125v-66h-246z"/>
      <glyph glyph-name="uni03BC" unicode="&#x3bc;" horiz-adv-x="535"
             d="M454 492v-393q0 -9 2 -15.5t5.5 -11t8.5 -7t11 -2.5q4 0 8.5 0.5t8.5 1t8.5 1.5t8.5 2v-59q-6 -4 -13 -6.5t-15 -4.5t-17 -3t-20 -1q-10 0 -19.5 3t-17.5 8.5t-13.5 13.5t-8.5 18q-17 -12 -34.5 -20.5t-35.5 -13.5t-35 -7.5t-35 -2.5q-16 0 -30.5 2t-27 6t-23.5 10.5
t-20 14.5v-57q0 -27 1.5 -49t5.5 -40t9.5 -35t13.5 -36h-74q-8 17 -13 32.5t-7.5 32t-4 37.5t-1.5 49v526l76 6v-323q0 -27 7 -46.5t20.5 -32.5t33.5 -19.5t46 -6.5q18 0 32 1.5t27 4.5t26 7.5t31 11.5v397z"/>
      <glyph glyph-name="pi" unicode="&#x3c0;" horiz-adv-x="637"
             d="M492 420h-15v-256q0 -31 3.5 -51.5t9.5 -32t14.5 -16.5t20.5 -5q7 0 13.5 0.5t13 1.5t12.5 2.5t13 3.5v-64q-9 -3 -17.5 -5t-17.5 -3.5t-19.5 -2t-21.5 -0.5q-22 0 -39.5 7t-31 24.5t-21 47.5t-7.5 74v276h-190v-268q0 -21 -2 -41t-5.5 -38.5t-9.5 -36.5t-14 -37h-73
q7 19 12.5 37.5t9 37t5.5 36.5t2 35v274h-13q-12 0 -22.5 -1.5t-20 -4.5t-19 -7.5t-22.5 -11.5v65q11 8 22 13.5t24 9t28 5.5t33 2h342q16 0 29 0.5t24.5 2.5t22.5 4.5t24 7.5v-67q-10 -5 -20.5 -8.5t-22 -5.5t-25 -3t-29.5 -1z"/>
      <glyph glyph-name="Wgrave" unicode="&#x1e80;" horiz-adv-x="869"
             d="M17 0zM200 0l-183 656h89l149 -577h5l139 405l-57 172h84l186 -577h5l152 577h83l-187 -656h-105l-123 381h-4l-128 -381h-105zM375 866l99 -145h-66l-119 145h86z"/>
      <glyph glyph-name="wgrave" unicode="&#x1e81;" horiz-adv-x="718"
             d="M16 0zM700 489l-154 -489h-97l-90 296h-5l-86 -296h-97l-155 489h87l119 -419h5l97 321l-32 98h84l124 -419h5l117 419h78zM298 697l99 -145h-66l-119 145h86z"/>
      <glyph glyph-name="Wacute" unicode="&#x1e82;" horiz-adv-x="869"
             d="M17 0zM200 0l-183 656h89l149 -577h5l139 405l-57 172h84l186 -577h5l152 577h83l-187 -656h-105l-123 381h-4l-128 -381h-105zM398 721l98 145h87l-119 -145h-66z"/>
      <glyph glyph-name="wacute" unicode="&#x1e83;" horiz-adv-x="718"
             d="M16 0zM700 489l-154 -489h-97l-90 296h-5l-86 -296h-97l-155 489h87l119 -419h5l97 321l-32 98h84l124 -419h5l117 419h78zM321 552l98 145h87l-119 -145h-66z"/>
      <glyph glyph-name="Wdieresis" unicode="&#x1e84;" horiz-adv-x="869"
             d="M17 0zM200 0l-183 656h89l149 -577h5l139 405l-57 172h84l186 -577h5l152 577h83l-187 -656h-105l-123 381h-4l-128 -381h-105zM466 763q0 11 3 20t9.5 15t15 9t18.5 3q11 0 19.5 -3t15 -9t9.5 -15t3 -20t-3 -20t-9.5 -15t-15 -9t-19.5 -3t-19.5 3t-14.5 9t-9 15t-3 20z
M310 763q0 11 3 20t9 15t14.5 9t19.5 3t19.5 -3t14.5 -9t9 -15t3 -20t-3 -20t-9 -15t-14.5 -9t-19.5 -3t-19.5 3t-14.5 9t-9 14.5t-3 20.5z"/>
      <glyph glyph-name="wdieresis" unicode="&#x1e85;" horiz-adv-x="718"
             d="M16 0zM700 489l-154 -489h-97l-90 296h-5l-86 -296h-97l-155 489h87l119 -419h5l97 321l-32 98h84l124 -419h5l117 419h78zM389 612q0 11 3 20t9.5 15t15 9t18.5 3q11 0 19.5 -3t15 -9t9.5 -15t3 -20t-3 -20t-9.5 -15t-15 -9t-19.5 -3t-19.5 3t-14.5 9t-9 15t-3 20z
M233 612q0 11 3 20t9 15t14.5 9t19.5 3t19.5 -3t14.5 -9t9 -15t3 -20t-3 -20t-9 -15t-14.5 -9t-19.5 -3t-19.5 3t-14.5 9t-9 14.5t-3 20.5z"/>
      <glyph glyph-name="Ygrave" unicode="&#x1ef2;" horiz-adv-x="543"
             d="M17 0zM311 270v-270h-79v270l-215 386h95l164 -306h3l163 306h84zM212 866l99 -145h-66l-119 145h86z"/>
      <glyph glyph-name="ygrave" unicode="&#x1ef3;" horiz-adv-x="452"
             d="M17 0zM185 19l-168 470h84l136 -404h4l117 404h77l-178 -555q-11 -36 -26.5 -61t-34.5 -40t-41.5 -22t-49.5 -7q-7 0 -14 0.5t-13.5 1t-12.5 1.5t-12 3v64q7 -1 13.5 -2t12 -1.5t11 -0.5h10.5q17 0 30.5 4.5t25 13.5t20 24t16.5 37l24 70h-31zM168 697l99 -145h-66
l-119 145h86z"/>
      <glyph glyph-name="endash" unicode="&#x2013;" horiz-adv-x="500"
             d="M29 252v69h442v-69h-442z"/>
      <glyph glyph-name="emdash" unicode="&#x2014;" horiz-adv-x="1000"
             d="M29 252v69h942v-69h-942z"/>
      <glyph glyph-name="quoteleft" unicode="&#x2018;" horiz-adv-x="246"
             d="M182 530q0 -13 -4.5 -24.5t-12 -20t-18.5 -13.5t-24 -5t-24 4.5t-19 13t-12 20.5t-4 26q0 16 12 43t29.5 55t33 47t21.5 19h41l-48 -117q6 -3 11.5 -8t9.5 -11t6 -13.5t2 -15.5z"/>
      <glyph glyph-name="quoteright" unicode="&#x2019;" horiz-adv-x="246"
             d="M64 633q0 13 4.5 24.5t12 20t18.5 13.5t24 5t24 -4.5t19 -13t12 -20.5t4 -26q0 -16 -12 -43t-29.5 -55t-33 -47t-21.5 -19h-41l48 117q-6 3 -11.5 8t-9.5 11t-6 13.5t-2 15.5z"/>
      <glyph glyph-name="quotesinglbase" unicode="&#x201a;" horiz-adv-x="246"
             d="M64 55q0 13 4.5 24.5t12 20t18.5 13.5t24 5t24 -4.5t19 -13t12 -20.5t4 -26q0 -16 -12 -43t-29.5 -55t-33 -47t-21.5 -19h-41l48 117q-6 3 -11.5 8t-9.5 11t-6 13.5t-2 15.5z"/>
      <glyph glyph-name="quotedblleft" unicode="&#x201c;" horiz-adv-x="406"
             d="M182 530q0 -13 -4.5 -24.5t-12 -20t-18.5 -13.5t-24 -5t-24 4.5t-19 13t-12 20.5t-4 26q0 16 12 43t29.5 55t33 47t21.5 19h41l-48 -117q6 -3 11.5 -8t9.5 -11t6 -13.5t2 -15.5zM342 530q0 -13 -4.5 -24.5t-12 -20t-18.5 -13.5t-24 -5t-24 4.5t-19 13t-12 20.5t-4 26
q0 16 12 43t29.5 55t33 47t21.5 19h41l-48 -117q6 -3 11.5 -8t9.5 -11t6 -13.5t2 -15.5z"/>
      <glyph glyph-name="quotedblright" unicode="&#x201d;" horiz-adv-x="406"
             d="M224 633q0 13 4.5 24.5t12 20t18.5 13.5t24 5t24 -4.5t19 -13t12 -20.5t4 -26q0 -16 -12 -43t-29.5 -55t-33 -47t-21.5 -19h-41l48 117q-6 3 -11.5 8t-9.5 11t-6 13.5t-2 15.5zM64 633q0 13 4.5 24.5t12 20t18.5 13.5t24 5t24 -4.5t19 -13t12 -20.5t4 -26q0 -16 -12 -43
t-29.5 -55t-33 -47t-21.5 -19h-41l48 117q-6 3 -11.5 8t-9.5 11t-6 13.5t-2 15.5z"/>
      <glyph glyph-name="quotedblbase" unicode="&#x201e;" horiz-adv-x="406"
             d="M224 55q0 13 4.5 24.5t12 20t18.5 13.5t24 5t24 -4.5t19 -13t12 -20.5t4 -26q0 -16 -12 -43t-29.5 -55t-33 -47t-21.5 -19h-41l48 117q-6 3 -11.5 8t-9.5 11t-6 13.5t-2 15.5zM64 55q0 13 4.5 24.5t12 20t18.5 13.5t24 5t24 -4.5t19 -13t12 -20.5t4 -26q0 -16 -12 -43
t-29.5 -55t-33 -47t-21.5 -19h-41l48 117q-6 3 -11.5 8t-9.5 11t-6 13.5t-2 15.5z"/>
      <glyph glyph-name="dagger" unicode="&#x2020;" horiz-adv-x="401"
             d="M175 562l-3 134h57l-3 -134v-37h36l112 4v-54l-112 3h-36v-54l3 -615h-57l3 615v54h-36l-112 -3v54l112 -4h36v37z"/>
      <glyph glyph-name="daggerdbl" unicode="&#x2021;" horiz-adv-x="401"
             d="M226 -57l3 -134h-57l3 134v37h-36l-112 -4v54l112 -3h36v451h-36l-112 -3v54l112 -4h36v37l-3 134h57l-3 -134v-37l35 1l113 3v-54l-112 3h-36v-451h36l112 3v-54l-112 4h-36v-37z"/>
      <glyph glyph-name="bullet" unicode="&#x2022;" horiz-adv-x="284"
             d="M37 295q0 24 7 44.5t20.5 35t33 22.5t44.5 8q24 0 43.5 -7t33.5 -21t21 -34.5t7 -47.5q0 -23 -7 -42.5t-21 -34t-33.5 -22.5t-43.5 -8q-25 0 -44.5 7t-33 21t-20.5 34t-7 45z"/>
      <glyph glyph-name="ellipsis" unicode="&#x2026;" horiz-adv-x="661"
             d="M478 57q0 14 4 25.5t11.5 20t19 13t25.5 4.5t25 -4t19 -12t12 -20t4 -27q0 -13 -4 -24.5t-12 -19.5t-19 -12.5t-25 -4.5t-25.5 4t-19 12t-11.5 19t-4 26zM271 57q0 14 4 25.5t11.5 20t19 13t25.5 4.5t25 -4t19 -12t12 -20t4 -27q0 -13 -4 -24.5t-12 -19.5t-19 -12.5
t-25 -4.5t-25.5 4t-19 12t-11.5 19t-4 26zM63 57q0 14 4 25.5t11.5 20t19 13t25.5 4.5t25 -4t19 -12t12 -20t4 -27q0 -13 -4 -24.5t-12 -19.5t-19 -12.5t-25 -4.5t-25.5 4t-19 12t-11.5 19t-4 26z"/>
      <glyph glyph-name="perthousand" unicode="&#x2030;" horiz-adv-x="1196"
             d="M519 674l55 -22l-266 -675l-55 22zM197 663q33 0 61 -11t48.5 -33.5t32 -58t11.5 -83.5q0 -46 -13 -82.5t-35.5 -61t-52 -36.5t-61.5 -12q-34 0 -61.5 10t-48 32t-32 57t-11.5 84q0 48 12.5 85t35 61.5t52 36.5t62.5 12zM192 607q-20 0 -36 -8t-28 -24.5t-18.5 -41.5
t-6.5 -58q0 -36 6.5 -61.5t18.5 -41.5t28 -23t37 -7q19 0 35.5 8t28.5 24.5t18.5 41.5t6.5 57q0 36 -6 61.5t-17.5 41.5t-28 23.5t-38.5 7.5zM1008 371q33 0 61 -11t48.5 -33.5t32 -58t11.5 -83.5q0 -47 -13 -83t-35.5 -60.5t-51.5 -36.5t-62 -12t-60.5 10t-48 32t-32 57
t-11.5 84q0 48 12.5 85t35 61.5t51.5 36.5t62 12zM640 371q33 0 61 -11t48.5 -33.5t32 -58t11.5 -83.5q0 -47 -13 -83t-35.5 -60.5t-51.5 -36.5t-62 -12q-34 0 -61.5 10t-48 32t-32 57t-11.5 84q0 48 12.5 85t35 61.5t52 36.5t62.5 12zM1004 315q-20 0 -36 -8t-28 -24.5
t-18.5 -41.5t-6.5 -58q0 -36 6.5 -61.5t18 -41.5t28 -23t36.5 -7t36.5 8t28.5 24.5t18.5 41.5t6.5 57q0 35 -6 61t-17.5 42t-28.5 23.5t-38 7.5zM635 315q-20 0 -36 -8t-27.5 -24.5t-18 -41.5t-6.5 -58q0 -36 6.5 -61.5t18 -41.5t27.5 -23t37 -7q20 0 36.5 8t28.5 24.5
t18.5 41.5t6.5 57q0 35 -6 61t-18 42t-28.5 23.5t-38.5 7.5z"/>
      <glyph glyph-name="guilsinglleft" unicode="&#x2039;" horiz-adv-x="387"
             d="M228 36l-162 214l162 214h87l-162 -209l162 -219h-87z"/>
      <glyph glyph-name="guilsinglright" unicode="&#x203a;" horiz-adv-x="387"
             d="M159 464l162 -214l-162 -214h-87l162 209l-162 219h87z"/>
      <glyph glyph-name="fraction" unicode="&#x2044;" horiz-adv-x="142"
             d="M273 679l53 -31l-458 -792l-53 31z"/>
      <glyph glyph-name="Euro" unicode="&#x20ac;"
             d="M27 362v64h96q13 57 39 101.5t62 74.5t79.5 45t91.5 15q14 0 27 -0.5t25.5 -2t25.5 -4t27 -5.5v-71q-14 3 -28 5.5t-27.5 4t-26.5 2.5t-26 1q-34 0 -64 -10.5t-54.5 -31t-42 -52t-27.5 -72.5h204v-64h-213q-1 -9 -1 -13t-0.5 -9.5t-0.5 -11v-11.5v-11.5v-9t0.5 -9
t0.5 -8.5h214v-63h-205q9 -41 26 -70.5t40.5 -48t51.5 -27.5t60 -9q17 0 31.5 1t28 2.5t29 4t36.5 6.5v-67q-20 -5 -36 -8t-30.5 -5t-29.5 -2.5t-33 -0.5q-50 0 -92.5 13t-76.5 40.5t-57.5 70t-33.5 100.5h-90v63h84v26v15t0.5 14l1 14t1.5 14h-87z"/>
      <glyph glyph-name="trademark" unicode="&#x2122;" horiz-adv-x="868"
             d="M223 600v-300h-66v300h-104v56h274v-56h-104zM468 579h-3l-8 -279h-61l16 356h86l97 -221h2l96 221h77l15 -356h-60l-7 279h-3l-98 -216h-51z"/>
      <glyph glyph-name="uni2126" unicode="&#x2126;" horiz-adv-x="668"
             d="M43 0zM379 0l-11 65q32 6 61 23.5t52 48t36.5 77.5t13.5 109q0 73 -15 125.5t-42 84.5t-62.5 46.5t-77.5 14.5q-38 0 -73 -14.5t-63 -45.5t-45 -81.5t-17 -119.5q0 -64 12 -112t34 -80t52 -50.5t66 -25.5l-12 -65h-245v66h109v4q-23 20 -40.5 44t-30.5 54.5t-20 69
t-7 85.5q0 80 22 144t61 108.5t91.5 67t113.5 22.5q58 0 107.5 -21t86.5 -63t57 -104.5t20 -143.5q0 -47 -8 -86.5t-22.5 -71.5t-35 -57.5t-47.5 -47.5v-4h125v-66h-246z"/>
      <glyph glyph-name="arrowleft" unicode="&#x2190;" horiz-adv-x="864"
             d="M35 319l218 218l46 -47l-137 -136v-2h667v-66h-667v-2l138 -136l-47 -47z"/>
      <glyph glyph-name="arrowup" unicode="&#x2191;" horiz-adv-x="546"
             d="M273 696l218 -218l-47 -46l-136 137h-2v-667h-66v667h-2l-136 -138l-47 47z"/>
      <glyph glyph-name="arrowright" unicode="&#x2192;" horiz-adv-x="864"
             d="M611 537l218 -218l-218 -218l-47 47l138 136v2h-667v66h667v2l-137 136z"/>
      <glyph glyph-name="arrowdown" unicode="&#x2193;" horiz-adv-x="546"
             d="M491 120l-218 -218l-218 218l47 47l136 -138h2v667h66v-667h2l136 137z"/>
      <glyph glyph-name="arrowboth" unicode="&#x2194;" horiz-adv-x="864"
             d="M829 319l-218 -218l-46 47l137 136v2h-540v-2l138 -136l-47 -47l-218 218l218 218l46 -47l-137 -136v-2h540v2l-138 136l47 47z"/>
      <glyph glyph-name="arrowupdn" unicode="&#x2195;" horiz-adv-x="546"
             d="M273 -98l-218 218l47 46l136 -137h2v540h-2l-136 -138l-47 47l218 218l218 -218l-47 -46l-136 137h-2v-540h2l136 138l47 -47z"/>
      <glyph glyph-name="uni2196" unicode="&#x2196;" horiz-adv-x="695"
             d="M55 696h308v-66l-193 1l-2 -2l472 -471l-47 -47l-471 472l-2 -2l1 -194h-66v309z"/>
      <glyph glyph-name="uni2197" unicode="&#x2197;" horiz-adv-x="695"
             d="M332 696h308v-309h-66l1 194l-2 2l-471 -472l-47 47l472 471l-2 2l-193 -1v66z"/>
      <glyph glyph-name="uni2198" unicode="&#x2198;" horiz-adv-x="695"
             d="M640 -98h-308v66l193 -1l2 2l-472 471l47 47l471 -472l2 2l-1 194h66v-309z"/>
      <glyph glyph-name="uni2199" unicode="&#x2199;" horiz-adv-x="695"
             d="M363 -98h-308v309h66l-1 -194l2 -2l471 472l47 -47l-472 -471l2 -2l193 1v-66z"/>
      <glyph glyph-name="partialdiff" unicode="&#x2202;"
             d="M259 -9q-47 0 -85.5 16t-67 47t-43.5 77.5t-15 106.5q0 61 17.5 109.5t48.5 82t71.5 51t85.5 17.5q19 0 35.5 -2.5t31 -8t27 -14t23.5 -20.5l5 2q-10 45 -28.5 79t-44.5 56.5t-57 33.5t-65 11q-16 0 -29 -1t-25.5 -2.5t-26 -4.5t-28.5 -7v66q15 4 29.5 7t29 4.5t29 2.5
t29.5 1q57 0 106.5 -22t88 -69.5t60.5 -122t22 -175.5q0 -83 -17.5 -144.5t-48 -100.5t-71 -57.5t-87.5 -18.5zM124 242q0 -47 10.5 -82t30 -58.5t45.5 -34.5t57 -11q30 0 55.5 13t44.5 38.5t29.5 62.5t10.5 85q0 17 -0.5 32.5t-1 30t-1.5 29.5t-3 32q-13 12 -27.5 21
t-32 15.5t-37 10t-40.5 3.5q-30 0 -55.5 -12.5t-44.5 -36.5t-29.5 -59t-10.5 -79z"/>
      <glyph glyph-name="product" unicode="&#x220f;" horiz-adv-x="654"
             d="M35 585v71h584v-71h-63v-685h-79v685h-300v-685h-79v685h-63z"/>
      <glyph glyph-name="summation" unicode="&#x2211;" horiz-adv-x="519"
             d="M58 -39l226 331l-216 300v64h379v-69h-283v-3l192 -263v-54l-206 -295v-3h302v-69h-394v61z"/>
      <glyph glyph-name="minus" unicode="&#x2212;"
             d="M68 263v67h394v-67h-394z"/>
      <glyph glyph-name="uni2215" unicode="&#x2215;" horiz-adv-x="142"
             d="M273 679l53 -31l-458 -792l-53 31z"/>
      <glyph glyph-name="uni2219" unicode="&#x2219;" horiz-adv-x="181"
             d="M39 296q0 12 3.5 22t10 17t16.5 11t22 4t21.5 -3.5t16 -10.5t10 -17t3.5 -23q0 -12 -3.5 -21.5t-10 -16.5t-16 -11t-21.5 -4t-22 3.5t-16.5 10.5t-10 17t-3.5 22z"/>
      <glyph glyph-name="radical" unicode="&#x221a;"
             d="M501 773l61 -17l-258 -762h-64l-140 418l-87 -24l-15 60l159 44l121 -380h3z"/>
      <glyph glyph-name="infinity" unicode="&#x221e;" horiz-adv-x="691"
             d="M652 317q0 -35 -11.5 -65.5t-32 -52t-47 -33.5t-54.5 -12q-24 0 -47 6.5t-44.5 20.5t-39.5 35t-31 49h-1l-27 -37q-13 -17 -28 -30t-32 -21.5t-35.5 -13t-39.5 -4.5q-27 0 -53 12.5t-46.5 35t-32 52.5t-11.5 64q0 35 11.5 65.5t32 52t47 33.5t54.5 12q24 0 47 -6.5
t44.5 -20t39.5 -34.5t30 -49h2l27 36q13 17 28 30t32 22t36 13.5t39 4.5q27 0 53 -12.5t46 -35.5t32 -53t12 -64zM186 225q12 0 23 3.5t22 11.5t23 21t27 32l28 37q-13 26 -26 44t-26.5 30t-30 18t-35.5 6q-18 0 -34.5 -7.5t-29.5 -21.5t-20 -33t-7 -42q0 -21 6.5 -39.5
t18 -32t27.5 -20.5t34 -7zM505 416q-12 0 -23 -4t-22 -12t-23 -21t-27 -32l-28 -37q13 -25 26 -43t26.5 -30.5t30 -18.5t35.5 -6q18 0 34.5 7.5t29.5 21.5t20 33.5t7 41.5t-6.5 40.5t-18 31.5t-27.5 20.5t-34 7.5z"/>
      <glyph glyph-name="integral" unicode="&#x222b;" horiz-adv-x="269"
             d="M172 548v-585q0 -35 -10.5 -63.5t-31 -49.5t-50 -32t-66.5 -11q-8 0 -16.5 0.5t-16.5 1.5t-15.5 2t-14.5 3l9 65q8 -2 14.5 -3t13.5 -1.5l14 -1t15 -0.5q19 0 33.5 6t25 17.5t15.5 27.5t5 36v585q0 34 10.5 62.5t31 49.5t50 32.5t66.5 11.5q9 0 17.5 -0.5t16.5 -1.5
t15 -2t15 -3l-9 -65q-8 2 -15 3t-13.5 1.5t-14 1t-15.5 0.5q-19 0 -33.5 -6t-25 -17.5t-15.5 -27.5t-5 -36z"/>
      <glyph glyph-name="approxequal" unicode="&#x2248;"
             d="M437 422l31 -45q-12 -17 -23.5 -30t-26 -22t-32 -14t-38.5 -5t-40.5 9.5t-47 29t-44.5 28.5t-35 9q-10 0 -21.5 -3.5t-22.5 -10t-21.5 -16t-20.5 -21.5l-32 46q12 17 27 30.5t31 23t33.5 14.5t36.5 5q22 0 42.5 -10t47 -29t42.5 -28t34 -9q11 0 21.5 3t20.5 9.5
t19.5 15.5t18.5 20zM437 262l31 -45q-12 -17 -23.5 -30t-26 -22t-32 -14t-38.5 -5t-40.5 9.5t-47 29t-44.5 28.5t-35 9q-10 0 -21.5 -3.5t-22.5 -10t-21.5 -16t-20.5 -21.5l-32 46q12 17 27 30.5t31 23t33.5 14.5t36.5 5q22 0 42.5 -10t47 -29t42.5 -28t34 -9q11 0 21.5 3
t20.5 9.5t19.5 15.5t18.5 20z"/>
      <glyph glyph-name="notequal" unicode="&#x2260;"
             d="M68 353v67h202l38 105l61 -22l-31 -83h124v-67h-148l-41 -113h189v-67h-213l-38 -105l-61 22l30 83h-112v67h136l41 113h-177z"/>
      <glyph glyph-name="lessequal" unicode="&#x2264;"
             d="M182 347v-2l263 -124l-28 -61l-336 164v44l336 165l28 -61zM68 63v66h394v-66h-394z"/>
      <glyph glyph-name="greaterequal" unicode="&#x2265;"
             d="M348 345v2l-263 125l28 61l336 -165v-44l-336 -164l-28 61zM462 129v-66h-394v66h394z"/>
      <glyph glyph-name="lozenge" unicode="&#x25ca;" horiz-adv-x="536"
             d="M513 331l-229 -331h-30l-231 331l230 325h31zM100 333l170 -246l168 242l-170 241z"/>
      <glyph glyph-name="fiets" unicode="&#x1f6b2;" horiz-adv-x="988"
             d="M625 395l-11 27h-247l106 -208l8 1h3h2t2 -0.5t2 -0.5zM353 407l-31 -65q20 -11 37 -26.5t29.5 -35.5t20.5 -42.5t9 -46.5h31q0 2 1 3.5l2 3l2 3t2 3.5zM234 -3q-37 0 -70.5 14.5t-59 40t-40 59t-14.5 70.5t14.5 70.5t40 59t59 40t70.5 14.5q9 0 18.5 -1t18 -2.5
t17.5 -4.5t17 -6l38 77l-38 75h-47l-4 25l139 -4v-21h-67l31 -61h249l-52 121h-89v20h102l102 -239q10 5 20 9t20.5 6.5t22 4t22.5 1.5q37 0 70.5 -14.5t59 -40t40 -59t14.5 -70.5t-14.5 -70.5t-40 -59t-59 -40t-70.5 -14.5t-70.5 14.5t-59 40t-40 59t-14.5 70.5
q0 23 6 45.5t16.5 42t26 36.5t33.5 29l-18 41l-127 -173q2 -2 3.5 -4.5t2.5 -5t1.5 -5.5t0.5 -6q0 -7 -2.5 -13t-7.5 -11t-11 -7.5t-13 -2.5q-6 0 -11 2t-9.5 5t-7.5 7.5t-5 9.5h-30q-2 -36 -17 -67.5t-40.5 -55.5t-58 -37.5t-68.5 -13.5zM234 17q32 0 61 12t51.5 33t36 49
t15.5 60h-148q-1 -2 -2.5 -3.5t-4 -3t-4.5 -2t-5 -0.5q-4 0 -7.5 1.5t-6 4t-4 6t-1.5 7.5t1.5 7.5t4 6t5.5 4t6 1.5l64 133q-7 3 -14.5 5t-15.5 3.5t-16 2.5t-16 1q-33 0 -63 -12.5t-53 -35.5t-35.5 -53t-12.5 -63t12.5 -63t35.5 -53t53 -35.5t63 -12.5zM250 191h148
q-1 21 -8 41t-18 37t-26 31t-33 24l-64 -132zM754 17q33 0 63 13t52.5 36t35 53t12.5 63t-12.5 63t-35.5 53t-53 35.5t-63 12.5q-10 0 -20.5 -1.5t-20 -4t-18.5 -6t-18 -8.5l21 -49q4 -10 9.5 -20t12.5 -20.5t14 -20.5t14 -18l1 0.5l2 1t2 0.5h2q4 0 7.5 -1.5t6 -4t4 -6
t1.5 -7.5t-1.5 -7.5t-4 -6t-6 -4t-7.5 -1.5t-7.5 1.5t-6 4t-4 6t-1.5 7.5v2t0.5 2l1 2l0.5 1q-10 10 -18 19t-15 18.5t-13.5 20.5t-11.5 24l-20 46q-16 -11 -28.5 -26t-21.5 -32.5t-14 -37t-5 -39.5q0 -33 12.5 -63t35.5 -53t53 -35.5t63 -12.5z"/>
      <glyph glyph-name="zero.osf"
             d="M259 -9q-47 0 -85.5 16t-67 47t-43.5 77.5t-15 106.5q0 61 17.5 109.5t48.5 82t71.5 51t85.5 17.5q46 0 85 -16t67.5 -47.5t44 -78t15.5 -105.5t-17.5 -107.5t-48.5 -82.5t-72 -52t-86 -18zM124 244q0 -47 10.5 -82t30 -58.5t45.5 -34.5t57 -11q29 0 54.5 13t45 37.5
t30 60.5t10.5 80q0 46 -10 80.5t-28.5 57t-45 33.5t-59.5 11q-30 0 -55.5 -12.5t-44.5 -36.5t-29.5 -59t-10.5 -79z"/>
      <glyph glyph-name="one.osf" horiz-adv-x="363"
             d="M37 402v64q20 6 39.5 10.5t38.5 7t38.5 4t38.5 1.5h54v-489h-76v416q-19 0 -35.5 -1t-32 -2.5t-31.5 -4t-34 -6.5z"/>
      <glyph glyph-name="two.osf" horiz-adv-x="487"
             d="M73 403v69q20 6 38 10t35 6.5t34 4t35 1.5q42 0 76 -10t57 -29t35 -44t12 -55q0 -27 -6.5 -49.5t-20.5 -42t-36 -37t-53 -33.5l-71 -36q-15 -8 -28 -17.5t-23.5 -20t-19 -22t-15.5 -25.5v-3h308v-70h-361l-22 62q5 20 15.5 40t26 38.5t36 35.5t45.5 31l67 37
q22 12 37 24.5t24 25t13.5 26t4.5 29.5t-7 29.5t-21 23.5t-34.5 15.5t-46.5 5.5q-18 0 -34.5 -1t-32 -3.5t-32 -6t-35.5 -9.5z"/>
      <glyph glyph-name="three.osf" horiz-adv-x="443"
             d="M36 421v68h332l21 -53q-11 -39 -26 -71t-33.5 -57.5t-41 -46t-50.5 -37.5v-2q39 -6 69 -20.5t51 -36t31.5 -51t10.5 -66.5q0 -47 -21.5 -88t-60.5 -71.5t-92.5 -47.5t-116.5 -17h-76v65h74q48 0 87.5 11.5t67.5 32t43 48.5t15 60q0 28 -9.5 51t-28.5 40t-48 28t-69 15
l-22 -8t-22 -7.5t-22.5 -6.5t-23.5 -5l-13 58q52 13 93.5 33t71.5 47.5t50.5 61t32.5 73.5h-274z"/>
      <glyph glyph-name="four.osf" horiz-adv-x="520"
             d="M400 491v-426h75v-65h-75v-176h-73v176h-264l-22 47q2 73 25 145.5t63 133.5t94 104.5t117 60.5h60zM113 65h214v351h-2q-42 -19 -80 -53.5t-67 -80.5t-46.5 -101.5t-18.5 -115.5z"/>
      <glyph glyph-name="five.osf" horiz-adv-x="485"
             d="M402 489v-68h-259v-163q10 1 19 2t17.5 2t17.5 1h19q47 0 85 -13t66 -38.5t42.5 -61t14.5 -79.5q0 -54 -22 -100t-62 -79t-93.5 -50.5t-115.5 -17.5h-68v65h70q46 0 85 13t67.5 36t44 54.5t15.5 68.5q0 31 -11 56t-31.5 42t-49.5 26t-65 9q-15 0 -29.5 -0.5t-28.5 -1.5
l-28 -2t-28 -3v302h328z"/>
      <glyph glyph-name="six.osf"
             d="M385 657h68v-64h-64q-45 0 -82 -11.5t-66 -34.5t-50.5 -58t-33.5 -83l1 -2q13 7 26 12t27.5 8t29.5 4.5t31 1.5q44 0 80 -13.5t62 -40t40 -65t14 -86.5q0 -52 -14.5 -95.5t-42 -74.5t-64 -47.5t-80.5 -16.5q-47 0 -84.5 17.5t-64.5 52t-41 85.5t-14 117q0 101 24 176
t67.5 123.5t102 71.5t128.5 23zM147 349q-1 -11 -2 -21t-1.5 -20.5t-0.5 -22.5v-27q0 -51 9.5 -89.5t26.5 -64t40 -37.5t51 -12q27 0 49 10t37.5 29.5t24 49t8.5 68.5q0 37 -9.5 65t-27.5 47t-42 28.5t-53 9.5q-17 0 -32 -1t-28.5 -2.5t-25.5 -4t-24 -5.5z"/>
      <glyph glyph-name="seven.osf" horiz-adv-x="460"
             d="M22 489h391l15 -67q-62 -63 -108 -133.5t-76 -146.5t-44.5 -153.5t-14.5 -156.5h-73q0 79 12.5 154.5t39.5 149.5t71 145t105 137v3h-318v68z"/>
      <glyph glyph-name="eight.osf"
             d="M272 665q40 0 73.5 -11.5t57.5 -32.5t37 -49t13 -59q0 -28 -7 -53t-21.5 -47.5t-37.5 -42.5t-55 -39l41 -23q28 -16 47 -32.5t31 -34t17 -36t5 -39.5q0 -37 -16 -69.5t-45.5 -56t-68 -36.5t-81.5 -13q-46 0 -84 11.5t-64.5 33.5t-40.5 51.5t-14 65.5q0 27 7 51.5t22 47
t39 43t58 39.5l-33 24q-18 14 -31 28t-21 30.5t-12 34.5t-4 40q0 34 14.5 65.5t40.5 56t60.5 38.5t72.5 14zM266 602q-23 0 -42.5 -8t-33.5 -22t-22 -32.5t-8 -40.5q0 -18 3.5 -32.5t10.5 -26.5t19 -22.5t29 -21.5l66 -41q23 17 40 33.5t28.5 34.5t17 38.5t5.5 43.5
q0 21 -8 39t-22.5 31t-35.5 20t-47 7zM303 265l-75 42q-24 -15 -41.5 -32t-28.5 -35.5t-16.5 -38t-5.5 -41.5q0 -24 9.5 -44t27 -34.5t41.5 -22t53 -7.5q26 0 49.5 7.5t41 21.5t27 31.5t9.5 36.5q0 17 -3.5 30.5t-13 27t-27.5 28t-47 30.5z"/>
      <glyph glyph-name="nine.osf"
             d="M145 -168h-66v63h63q45 0 82 11.5t66.5 35t50.5 59t34 83.5l-2 2q-13 -7 -25.5 -12t-26 -8.5t-28.5 -5t-33 -1.5q-44 0 -80 13.5t-62.5 40t-40.5 65t-14 86.5q0 52 14.5 95.5t42 74.5t64 47.5t80.5 16.5q47 0 84.5 -17.5t64 -51.5t40.5 -85t14 -117q0 -101 -24 -176.5
t-67.5 -124t-102 -71.5t-128.5 -23zM382 140q2 18 2.5 25t1.5 17.5t1.5 22.5t0.5 26q0 52 -9 90.5t-26 63.5t-40.5 37t-51.5 12q-27 0 -49 -10t-37.5 -30t-23.5 -49t-8 -67q0 -37 9.5 -66t26.5 -47.5t41 -28t52 -9.5q16 0 31 1t29 2.5t26 4t24 5.5z"/>
      <glyph glyph-name="space_uni0326" horiz-adv-x="188"
             d="M66 -99q0 12 3.5 21t10 16t15.5 10.5t20 3.5q10 0 18 -3.5t14 -10t9.5 -16.5t3.5 -22q0 -15 -4.5 -33t-12.5 -36t-18.5 -34.5t-21.5 -28.5h-35l25 86q-6 3 -11 8t-8.5 10.5t-5.5 12.5t-2 16z"/>
      <glyph glyph-name="space_uni0326.cap" horiz-adv-x="188"
             d="M65 -100q0 12 3.5 21.5t10 16.5t15.5 10.5t21 3.5q10 0 18.5 -3.5t14.5 -10.5t9.5 -16.5t3.5 -22.5q0 -15 -4.5 -34.5t-13 -39.5t-19 -37.5t-21.5 -29.5h-36l26 94q-7 4 -12 8t-8.5 10t-5.5 13.5t-2 16.5z"/>
      <glyph glyph-name="acute.cap" horiz-adv-x="425"
             d="M179 721l98 145h87l-119 -145h-66z"/>
      <glyph glyph-name="grave.cap" horiz-adv-x="425"
             d="M196 866l99 -145h-66l-119 145h86z"/>
      <glyph glyph-name="hungarumlaut.cap" horiz-adv-x="467"
             d="M236 721l111 145h82l-128 -145h-65zM79 721l111 145h82l-128 -145h-65z"/>
      <glyph glyph-name="circumflex.cap" horiz-adv-x="374"
             d="M44 721l103 145h81l99 -145h-76l-60 88h-16l-61 -88h-70z"/>
      <glyph glyph-name="caron.cap" horiz-adv-x="362"
             d="M329 866l-103 -145h-82l-98 145h76l60 -88h16l61 88h70z"/>
      <glyph glyph-name="breve.cap" horiz-adv-x="427"
             d="M246 721h-8q-29 0 -53 9.5t-41.5 28t-26.5 46t-9 61.5h68q0 -22 5 -39t13.5 -28.5t19.5 -17.5t24 -6h14q12 0 24 6t21 18t14 29t5 38h61q0 -34 -10 -61t-27.5 -46t-41.5 -28.5t-52 -9.5z"/>
      <glyph glyph-name="tilde.cap" horiz-adv-x="396"
             d="M325 816l23 -46q-9 -13 -18 -23t-20 -17.5t-24.5 -11t-29.5 -3.5t-32 7.5t-38.5 22.5t-34.5 21.5t-23 6.5q-8 0 -16.5 -2.5t-17 -7t-17 -12t-15.5 -16.5l-23 46q9 13 20.5 23.5t24 18t26 11.5t27.5 4q18 0 34.5 -7.5t38.5 -22.5t33 -21.5t22 -6.5q8 0 16 2.5t15.5 7
t15 11t13.5 15.5z"/>
      <glyph glyph-name="macron.cap" horiz-adv-x="397"
             d="M77 734v57h241v-57h-241z"/>
      <glyph glyph-name="dieresis.cap" horiz-adv-x="436"
             d="M254 763q0 11 3 20t9.5 15t15 9t18.5 3q11 0 19.5 -3t15 -9t9.5 -15t3 -20t-3 -20t-9.5 -15t-15 -9t-19.5 -3t-19.5 3t-14.5 9t-9 15t-3 20zM98 763q0 11 3 20t9 15t14.5 9t19.5 3t19.5 -3t14.5 -9t9 -15t3 -20t-3 -20t-9 -15t-14.5 -9t-19.5 -3t-19.5 3t-14.5 9t-9 14.5
t-3 20.5z"/>
      <glyph glyph-name="dotaccent.cap" horiz-adv-x="227"
             d="M70 774q0 11 3.5 20t9.5 15t15 9.5t20 3.5t20 -3t15 -9.5t9.5 -15t3.5 -20.5q0 -11 -3.5 -20t-9.5 -15t-15 -9t-20 -3t-20 3t-15 9t-9.5 15t-3.5 20z"/>
      <glyph glyph-name="ring.cap" horiz-adv-x="437"
             d="M149 793q0 17 6.5 32t18 26t27 17.5t32.5 6.5t32 -6t26.5 -17.5t18 -26.5t6.5 -32t-6.5 -32.5t-18 -27t-26.5 -18t-32 -6.5t-32.5 6.5t-27 18t-18 27t-6.5 32.5zM192 793q0 -9 3 -17t9 -13.5t13.5 -9t15.5 -3.5t15 3.5t13 9t9 13.5t3 17q0 8 -3 15.5t-9 13.5t-13 9.5
t-15 3.5t-15.5 -3.5t-13.5 -9.5t-9 -13.5t-3 -15.5z"/>
      <glyph glyph-name="cedilla.cap" horiz-adv-x="405"
             d="M146 -30l58 -5q26 -2 44.5 -7t30 -13.5t16.5 -19.5t5 -25q0 -19 -10 -36t-29 -29t-45.5 -19t-59.5 -7h-51v55h52q19 0 33 2t22.5 5.5t12.5 8.5t4 11q0 5 -2.5 9t-9 7.5t-18.5 6t-30 4.5l-23 3v49z"/>
      <glyph glyph-name="ogonek.cap" horiz-adv-x="297"
             d="M138 0h75q-22 -13 -38 -26t-26.5 -25.5t-15.5 -24.5t-5 -23q0 -9 3 -16t8.5 -11.5t13.5 -7t18 -2.5q8 0 15.5 0.5t15 2l15 3t15.5 4.5v-51q-7 -4 -15.5 -6.5t-17.5 -4t-18.5 -2.5t-19.5 -1q-27 0 -47 5.5t-33 15.5t-19.5 25.5t-6.5 35.5q0 13 5.5 27.5t16 28.5t26 27.5
t35.5 25.5z"/>
      <glyph glyph-name=".ttfautohint" horiz-adv-x="297"
             d="M0 0z"/>
      </font>
</defs>
</svg>
